Witamy Guest Strona Główna Regulamin Kontakt
User: Hasło:
Stwórz darmowe konto Odzyskiwanie hasła i loginu

Kategorie
 » Wszystkie torrenty
Filmy
 » DVD-R1929  
 » VCD/SVCD75  
 » BluRay/x2645342  
 » DivX/XviD LEKTOR/NAPISY PL60303  
 » DivX/XviD ENG/...19108  
 » RMVB5955  
 » HD832  
 » 3D260  
Seriale
 » Seriale Polskie3548  
 » Seriale Zagraniczne19676  
Dla Dzieci
 » Bajki Pl/Eng1063  
Anime
 » Anime Pl119  
 » Anime1237  
Muzyka
 » Muzyka Polska/Zagraniczna18760  
 » Soundtracki372  
 » Teledyski/Koncerty2021  
Gry
 » Gry PC10923  
 » Gry PS2/PS3/PSP1080  
 » Gry Xbox1164  
 » Gry - Inne Konsole407  
GSM/PDA
 » Tapety GSM/PDA108  
 » Programy GSM/PDA329  
 » Filmy GSM/PDA123  
 » Dzwonki GSM/PDA113  
 » Gry GSM/PDA225  
Książki/Czasopisma
 » E-Booki9443  
 » Audio-Booki1362  
 » Czasopisma904  
 » Komiksy668  
Programy
 » Windows11334  
 » Linux365  
 » Macintosh94  
Inne
 » Tapety2388  
 » Śmieszne72  
 » Sport934  
 » Pozostałe275  
Erotyka
 » Czasopisma119  
 » Zdjęcia 6180  
 » Filmy75177  
 » Gry 66  
 » Hentai+1853  
Archiwum


Auta III-Cars III 3D (2017)[BDRip 1080p x264 AC3/DTS][Dubbing i Napisy PL/Eng][Eng]

Kategoria: 3D
Wstawił:  Ishimura
Dodano: 07/02/2018
Rozmiar: 17.99 GB
Seedów: 0
Leecherów: 0
Komentarze: 0



http://www.imdb.com/title/tt3606752/
http://www.filmweb.pl/film/Auta+3-2017-711933

Multi Audio AC3/DTS i napisy w osobnym pliku.
Film w wersji Half Over/Under.
Plik zawiera Sample.


gatunek:    Animacja,Komedia
produkcja:  USA
premiera:   10-06-2017
reżyseria:  Brian Fee
scenariusz: Kiel Murray,Bob Peterson,Mike Rich
czas:       01:42:24

opis:

Lightning McQueen sets out to prove to a new generation of racers that he's still the best race car in the world.

Legenda sportu motorowego, Zygzak McQueen, zostaje zepchnięty na boczny tor przez ultraszybkie auta nowej generacji.
Wrócić do gry pomoże mu młoda, pełna zapału mechaniczka, Cruz Ramirez, która obmyśla autorski plan zwycięstwa. I choć
na swojej drodze Zygzak napotka kilka niespodziewanych zakrętów, udowodni, że zdobywca Złotego Tłoka nie poddaje się
tak łatwo!
Auta wracają na ekrany i prują bez opamiętania. A gdy już zajeżdżają do pit-stopu, nie marnują czasu na błahostki,
biorą na warsztat sprawy wagi najcięższej. To nie tylko najlepsza odsłona całej serii i przeprosiny po nieudanej "dwójce",
ale także mądry film o przemijaniu, na którenawet w świecie pstrokatych i rozgadanych wyścigówek  nie ma lekarstwa.






obsada:

Owen Wilson, Cristela Alonzo, Chris Cooper (voice)
Piotr Adamczyk, Wiktoria Wolańska, Zdzisław Wardejn (PL głos)
dane techniczne:

video:

Cars III 3D (2017)-*censored*.mkv

Hash: 75B645049F9D19D0
Format: Matroska
Czas: 01:42:24.992
Rozmiar: 8.11 GiB (8707903204)

Wideo (0):
Kodek:         (V_MPEG4/ISO/AVC) AVC
Format:       AVC
Rozmiar Obrazu: 1920x1080
FrameRate:     23.976 (24000/1001) FPS
Aspect ratio: 16:9
BitRate:       10.5 Mb/s

Audio (0):
Kodek:         (AC3) AC3
Format:       AC-3
Kanały:       6 channels
BitRate:       448 kb/s
Tytuł:         Cars III 3D (2017)-*censored*_AC3
Język:       Polish

Audio (1):
Kodek:         (AC3) AC3
Format:       AC-3
Kanały:       2 channels
BitRate:       320 kb/s
Tytuł:         Cars III 3D (2017)-*censored*_AC3
Język:       English


Napisy (0):
Kodek:         (S_HDMV/PGS) PGS
Format:       PGS
Język:       English (Cars III 3D (2017)-*censored*_PGS)

Napisy (1):
Kodek:         (S_HDMV/PGS) PGS
Format:       PGS
Język:       Polish (Cars III 3D (2017)-*censored*_Polish-PGS)

Napisy (2):
Kodek:         (S_HDMV/PGS) PGS
Format:       PGS
Język:       Polish (Cars III 3D (2017)-*censored*_FORCED-PGS)

audio:

Audio #1
ID                          : 1
Format                      : DTS
Format/Info                 : Digital Theater Systems
Format profile              : MA / Core
Mode                        : 16
Format settings, Endianness : Big
Codec ID                    : A_DTS
Duration                    : 1 h 42 min
Bit rate mode               : Variable / Constant
Bit rate                    : 2 846 kb/s / 1 509 kb/s
Channel(s)                  : 8 channels / 6 channels
Channel positions           : Front: L C R, Side: L R, Back: L R, LFE / Front: L C R, Side: L R, LFE
Sampling rate               : 48.0 kHz
Frame rate                  : 93.750 FPS (512 spf)
Bit depth                   : 16 bits
Compression mode            : Lossless / Lossy
Stream size                 : 2.04 GiB (21%)
Title                       : Cars III 3D (2017)-*censored*_DTS-HD.MA
Language                    : English
Default                     : Yes
Forced                      : No

Audio #2
ID                          : 2
Format                      : DTS
Format/Info                 : Digital Theater Systems
Format profile              : HRA / Core
Mode                        : 16
Format settings, Endianness : Big
Codec ID                    : A_DTS
Duration                    : 1 h 42 min
Bit rate mode               : Constant
Bit rate                    : 2 046 kb/s / 1 509 kb/s
Channel(s)                  : 6 channels
Channel positions           : Front: L C R, Side: L R, LFE
Sampling rate               : 48.0 kHz
Frame rate                  : 93.750 FPS (512 spf)
Bit depth                   : 24 bits
Compression mode            : Lossy
Stream size                 : 1.46 GiB (15%)
Title                       : Cars III 3D (2017)-*censored*_DTS-HD
Language                    : English
Default                     : No
Forced                      : No

Audio #3
ID                          : 3
Format                      : AC-3
Format/Info                 : Audio Coding 3
Mode extension              : CM (complete main)
Format settings, Endianness : Big
Codec ID                    : A_AC3
Duration                    : 1 h 42 min
Bit rate mode               : Constant
Bit rate                    : 320 kb/s
Channel(s)                  : 2 channels
Channel positions           : Front: L R
Sampling rate               : 48.0 kHz
Frame rate                  : 31.250 FPS (1536 spf)
Compression mode            : Lossy
Stream size                 : 234 MiB (2%)
Title                       : Cars III 3D (2017)-*censored*_AC3
Language                    : English
Default                     : No
Forced                      : No

Audio #4
ID                          : 4
Format                      : AC-3
Format/Info                 : Audio Coding 3
Mode extension              : CM (complete main)
Format settings, Endianness : Big
Codec ID                    : A_AC3
Duration                    : 1 h 42 min
Bit rate mode               : Constant
Bit rate                    : 320 kb/s
Channel(s)                  : 2 channels
Channel positions           : Front: L R
Sampling rate               : 48.0 kHz
Frame rate                  : 31.250 FPS (1536 spf)
Compression mode            : Lossy
Stream size                 : 234 MiB (2%)
Title                       : Cars III 3D (2017)-*censored*_AC3
Language                    : English
Default                     : No
Forced                      : No

Audio #5
ID                          : 5
Format                      : AC-3
Format/Info                 : Audio Coding 3
Mode extension              : CM (complete main)
Format settings, Endianness : Big
Codec ID                    : A_AC3
Duration                    : 1 h 42 min
Bit rate mode               : Constant
Bit rate                    : 640 kb/s
Channel(s)                  : 6 channels
Channel positions           : Front: L C R, Side: L R, LFE
Sampling rate               : 48.0 kHz
Frame rate                  : 31.250 FPS (1536 spf)
Compression mode            : Lossy
Stream size                 : 469 MiB (5%)
Title                       : Cars III 3D (2017)-*censored*_AC3
Language                    : Hindi
Default                     : No
Forced                      : No

Audio #6
ID                          : 6
Format                      : DTS
Format/Info                 : Digital Theater Systems
Mode                        : 16
Format settings, Endianness : Big
Codec ID                    : A_DTS
Duration                    : 1 h 42 min
Bit rate mode               : Constant
Bit rate                    : 1 509 kb/s
Channel(s)                  : 6 channels
Channel positions           : Front: L C R, Side: L R, LFE
Sampling rate               : 48.0 kHz
Frame rate                  : 93.750 FPS (512 spf)
Bit depth                   : 24 bits
Compression mode            : Lossy
Stream size                 : 1.08 GiB (11%)
Title                       : Cars III 3D (2017)-*censored*_DTS
Language                    : Polish
Default                     : No
Forced                      : No

Audio #7
ID                          : 7
Format                      : DTS
Format/Info                 : Digital Theater Systems
Mode                        : 16
Format settings, Endianness : Big
Codec ID                    : A_DTS
Duration                    : 1 h 42 min
Bit rate mode               : Constant
Bit rate                    : 1 509 kb/s
Channel(s)                  : 6 channels
Channel positions           : Front: L C R, Side: L R, LFE
Sampling rate               : 48.0 kHz
Frame rate                  : 93.750 FPS (512 spf)
Bit depth                   : 24 bits
Compression mode            : Lossy
Stream size                 : 1.08 GiB (11%)
Title                       : Cars III 3D (2017)-*censored*_DTS
Language                    : Spanish
Default                     : No
Forced                      : No

Audio #8
ID                          : 8
Format                      : DTS
Format/Info                 : Digital Theater Systems
Mode                        : 16
Format settings, Endianness : Big
Codec ID                    : A_DTS
Duration                    : 1 h 42 min
Bit rate mode               : Constant
Bit rate                    : 1 509 kb/s
Channel(s)                  : 6 channels
Channel positions           : Front: L C R, Side: L R, LFE
Sampling rate               : 48.0 kHz
Frame rate                  : 93.750 FPS (512 spf)
Bit depth                   : 24 bits
Compression mode            : Lossy
Stream size                 : 1.08 GiB (11%)
Title                       : Cars III 3D (2017)-*censored*_DTS
Language                    : Catalan
Default                     : No
Forced                      : No

Audio #9
ID                          : 9
Format                      : DTS
Format/Info                 : Digital Theater Systems
Mode                        : 16
Format settings, Endianness : Big
Codec ID                    : A_DTS
Duration                    : 1 h 42 min
Bit rate mode               : Constant
Bit rate                    : 1 509 kb/s
Channel(s)                  : 6 channels
Channel positions           : Front: L C R, Side: L R, LFE
Sampling rate               : 48.0 kHz
Frame rate                  : 93.750 FPS (512 spf)
Bit depth                   : 16 bits
Compression mode            : Lossy
Stream size                 : 1.08 GiB (11%)
Title                       : Cars III 3D (2017)-*censored*_DTS
Language                    : English
Default                     : No
Forced                      : No

Audio #10
ID                          : 10
Format                      : DTS
Format/Info                 : Digital Theater Systems
Mode                        : 16
Format settings, Endianness : Big
Codec ID                    : A_DTS
Duration                    : 1 h 42 min
Bit rate mode               : Constant
Bit rate                    : 1 509 kb/s
Channel(s)                  : 6 channels
Channel positions           : Front: L C R, Side: L R, LFE
Sampling rate               : 48.0 kHz
Frame rate                  : 93.750 FPS (512 spf)
Bit depth                   : 24 bits
Compression mode            : Lossy
Stream size                 : 1.08 GiB (11%)
Title                       : Cars III 3D (2017)-*censored*_DTS
Language                    : English
Default                     : No
Forced                      : No

Text #1
ID                          : 11
Format                      : PGS
Muxing mode                 : zlib
Codec ID                    : S_HDMV/PGS
Codec ID/Info               : Picture based subtitle format used on BDs/HD-DVDs
Duration                    : 1 h 40 min
Bit rate                    : 15.3 kb/s
Count of elements           : 3858
Stream size                 : 11.1 MiB (0%)
Title                       : Cars III 3D (2017)-*censored*_PGS
Language                    : English
Default                     : Yes
Forced                      : No

Text #2
ID                          : 12
Format                      : PGS
Muxing mode                 : zlib
Codec ID                    : S_HDMV/PGS
Codec ID/Info               : Picture based subtitle format used on BDs/HD-DVDs
Duration                    : 1 h 40 min
Bit rate                    : 12.1 kb/s
Count of elements           : 2750
Stream size                 : 8.76 MiB (0%)
Title                       : Cars III 3D (2017)-*censored*_PGS
Language                    : Spanish
Default                     : No
Forced                      : No

Text #3
ID                          : 13
Format                      : PGS
Muxing mode                 : zlib
Codec ID                    : S_HDMV/PGS
Codec ID/Info               : Picture based subtitle format used on BDs/HD-DVDs
Duration                    : 1 h 18 min
Bit rate                    : 49 b/s
Count of elements           : 16
Stream size                 : 28.8 KiB (0%)
Title                       : Cars III 3D (2017)-*censored*_PGS_FORCED-PGS
Language                    : Hindi
Default                     : No
Forced                      : No
Szczegóły torrenta
Hash
e009a3c7d69d7aa1f0e694afcb599d2cde5c2cce
Aktualizacja
12/06/2018 20:42:59 (Kliknij na [uaktualnij] by odświeżyc statystyki seedów i leecherów).
Zobacz również
Komentarze


Brak komentarzy...


Wstecz