Witamy Guest Strona Główna Regulamin Kontakt
User: Hasło:
Stwórz darmowe konto Odzyskiwanie hasła i loginu

Kategorie
 » Wszystkie torrenty
Filmy
 » DVD-R1924  
 » VCD/SVCD75  
 » BluRay/x2645190  
 » DivX/XviD LEKTOR/NAPISY PL59775  
 » DivX/XviD ENG/...19116  
 » RMVB5955  
 » HD832  
 » 3D252  
Seriale
 » Seriale Polskie3535  
 » Seriale Zagraniczne19490  
Dla Dzieci
 » Bajki Pl/Eng1054  
Anime
 » Anime Pl118  
 » Anime1237  
Muzyka
 » Muzyka Polska/Zagraniczna18512  
 » Soundtracki371  
 » Teledyski/Koncerty2007  
Gry
 » Gry PC10774  
 » Gry PS2/PS3/PSP1080  
 » Gry Xbox1164  
 » Gry - Inne Konsole407  
GSM/PDA
 » Tapety GSM/PDA108  
 » Programy GSM/PDA329  
 » Filmy GSM/PDA123  
 » Dzwonki GSM/PDA113  
 » Gry GSM/PDA225  
Książki/Czasopisma
 » E-Booki9394  
 » Audio-Booki1296  
 » Czasopisma904  
 » Komiksy667  
Programy
 » Windows11320  
 » Linux365  
 » Macintosh94  
Inne
 » Tapety2388  
 » Śmieszne72  
 » Sport915  
 » Pozostałe275  
Erotyka
 » Czasopisma119  
 » Zdjęcia 6180  
 » Filmy75133  
 » Gry 66  
 » Hentai+1853  
Archiwum


Smerfy: Poszukiwacze zaginionej wioski-Smurfs: The Lost Village 3D (2017)[BRRip 1080p x264 AC3][Dubbing PL][Eng]

Kategoria: 3D
Wstawił:  Ishimura
Dodano: 18/10/2017
Rozmiar: 8.12 GB
Seedów: 9
Leecherów: 7
Komentarze: 0

https://i.imgur.com/eWFcn9k.jpg

http://www.imdb.com/title/tt2398241/
http://www.filmweb.pl/film/Smerfy%3A+Poszukiwacze+zaginionej+wioski-2017-658071

Film w werji 3D Half Over/Under.
Plik zawiera sample.

reżyseria: Kelly Asbury
scenariusz: Pamela Ribon,Stacey Harman
gatunek: Animacja,Familijny,Fantasy
produkcja: USA
premiera: 23-03-2017
muzyka:         Christopher Lennertz
czas:           1h 29min

opis:

In this fully animated, all-new take on the Smurfs, a mysterious map sets Smurfette and her
friends Brainy, Clumsy and Hefty on an exciting race through the Forbidden Forest leading
to the discovery of the biggest secret in Smurf history.

W całej wiosce Łasuch, Ważniak, Papa Smerf, Laluś mają jakieś zadania. Co jednak ma robić Smerfetka?
Jedyna dziewczyna w całej grupie niebieskich smerfów? W poszukiwaniu odpowiedzi towarzyszyć jej będą
inne Smerfy. Wspólnie wyruszą w wielką podróż, która odkryje przed nami niezwykłą tajemnicę... Ale,
uwaga, każdy ich krok śledzi Gargamel.

https://i.imgur.com/rxY7tjp.jpg
https://i.imgur.com/0LG1sNO.jpg
https://i.imgur.com/zm924BN.jpg
https://i.imgur.com/ujIaCn9.jpg

obsada:

Demi Lovato, Rainn Wilson, Joe Manganiello (voice)

dane techniczne:

Smurfs-The Lost Village 3D (2017)-*censored*.mkv
Format                      : Matroska
Format version              : Version 4 / Version 2
File size                   : 8.08 GiB
Duration                    : 1 h 29 min
Overall bit rate            : 12.9 Mb/s
Movie name                  : Smurfs: The Lost Village 3D (2017)-*censored*
Encoded date                : UTC 2017-10-18 04:06:41
Writing application         : mkvmerge v8.1.0 ('Psychedelic Postcard&#039 64bit
Writing library             : libebml v1.3.1 + libmatroska v1.4.2
Cover                       : Yes
Attachments                 : Cover.jpg

Video
ID                          : 1
Format                      : AVC
Format/Info                 : Advanced Video Codec
Format profile              : High@L4.1
Format settings, CABAC      : Yes
Format settings, RefFrames  : 2 frames
Codec ID                    : V_MPEG4/ISO/AVC
Duration                    : 1 h 29 min
Bit rate                    : 12.0 Mb/s
Width                       : 1 920 pixels
Height                      : 1 080 pixels
Display aspect ratio        : 16:9
Frame rate mode             : Constant
Frame rate                  : 23.976 (24000/1001) FPS
Color space                 : YUV
Chroma subsampling          : 4:2:0
Bit depth                   : 8 bits
Scan type                   : Progressive
Bits/(Pixel*Frame)          : 0.241
Stream size                 : 7.51 GiB (93%)
Title                       : Smurfs: The Lost Village 3D (2017)-*censored*
Writing library             : x264 core 142
Default                     : Yes
Forced                      : No
Color range                 : Limited
Color primaries             : BT.709
Transfer characteristics    : BT.709
Matrix coefficients         : BT.709

Audio #1
ID                          : 2
Format                      : AC-3
Format/Info                 : Audio Coding 3
Format settings, Endianness : Big
Codec ID                    : A_AC3
Duration                    : 1 h 29 min
Bit rate mode               : Constant
Bit rate                    : 256 kb/s
Channel(s)                  : 2 channels
Channel positions           : Front: L R
Sampling rate               : 48.0 kHz
Frame rate                  : 31.250 FPS (1536 SPF)
Bit depth                   : 16 bits
Compression mode            : Lossy
Stream size                 : 164 MiB (2%)
Title                       : Smurfs: The Lost Village 3D (2017)-*censored*
Language                    : Polish
Service kind                : Complete Main
Default                     : No
Forced                      : No

Audio #2
ID                          : 3
Format                      : AC-3
Format/Info                 : Audio Coding 3
Format settings, Endianness : Big
Codec ID                    : A_AC3
Duration                    : 1 h 29 min
Bit rate mode               : Constant
Bit rate                    : 640 kb/s
Channel(s)                  : 6 channels
Channel positions           : Front: L C R, Side: L R, LFE
Sampling rate               : 48.0 kHz
Frame rate                  : 31.250 FPS (1536 SPF)
Bit depth                   : 16 bits
Compression mode            : Lossy
Stream size                 : 411 MiB (5%)
Title                       : Smurfs: The Lost Village 3D (2017)-*censored*_AC3
Language                    : English
Service kind                : Complete Main
Default                     : No
Forced                      : No

Text
ID                          : 4
Format                      : UTF-8
Codec ID                    : S_TEXT/UTF8
Codec ID/Info               : UTF-8 Plain Text
Duration                    : 1 h 25 min
Bit rate                    : 54 b/s
Count of elements           : 1094
Stream size                 : 34.1 KiB (0%)
Title                       : Smurfs: The Lost Village 3D (2017)-*censored*_SRT_Full
Language                    : English
Default                     : No
Forced                      : No

Menu
00:00:00.000                : en:1
00:08:48.445                : en:2
00:11:03.413                : en:3
00:14:33.748                : en:4
00:21:21.069                : en:5
00:27:25.143                : en:6
00:30:33.538                : en:7
00:36:49.081                : en:8
00:42:41.349                : en:9
00:45:58.672                : en:10
00:50:35.949                : en:11
00:57:03.585                : en:12
01:02:35.293                : en:13
01:09:07.769                : en:14
01:14:39.475                : en:15
01:19:34.478                : en:16
Szczegóły torrenta
Hash
4c1f15c202e460cfbd2a6fe232ca82bcc41b55f1
Aktualizacja
03/02/2018 10:39:21 (Kliknij na [uaktualnij] by odświeżyc statystyki seedów i leecherów).
Zobacz również
Komentarze


Brak komentarzy...


Wstecz