Witamy Guest Strona Główna Regulamin Kontakt
User: Hasło:
Stwórz darmowe konto Odzyskiwanie hasła i loginu

Kategorie
 » Wszystkie torrenty
Filmy
 » DVD-R1994  
 » VCD/SVCD77  
 » BluRay/x2649072  
 » DivX/XviD LEKTOR/NAPISY PL94731  
 » RMVB5972  
 » DivX/XviD ENG/...19187  
 » HD1159  
 » 3D320  
Seriale
 » Seriale Polskie6483  
 » Seriale Zagraniczne28406  
Dla Dzieci
 » Bajki Pl/Eng1318  
Anime
 » Anime Pl135  
 » Anime1285  
Muzyka
 » Muzyka Polska/Zagraniczna39280  
 » Soundtracki548  
 » Teledyski/Koncerty2328  
Gry
 » Gry PC18711  
 » Gry PS2/PS3/PSP1104  
 » Gry Xbox1167  
 » Gry - Inne Konsole495  
GSM/PDA
 » Tapety GSM/PDA111  
 » Programy GSM/PDA361  
 » Filmy GSM/PDA124  
 » Dzwonki GSM/PDA115  
 » Gry GSM/PDA233  
Książki/Czasopisma
 » E-Booki19385  
 » Audio-Booki7170  
 » Czasopisma986  
 » Komiksy706  
Programy
 » Windows12102  
 » Linux375  
 » Macintosh106  
Inne
 » Śmieszne109  
 » Tapety2521  
 » Sport1738  
 » Pozostałe290  
Erotyka
 » Czasopisma125  
 » Zdjęcia 6941  
 » Filmy161813  
 » Gry 89  
 » Hentai+1854  
Archiwum


Bez pamięci / Memory 2022 [480p] [AMZN] [WEBRip] [AAC2.0] [H264] [Lektor PL]

Kategoria: BluRay/x264
Wstawił:  Ishimura
Dodano: 29/09/2022
Rozmiar: 687.05 MB
Seedów: 0
Leecherów: 0
Komentarze: 0

Tytuł: Bez pamięci / Memory
Produkcja: USA
Gatunek: Thriller / Akcja / Kryminał
Premiera: 29 kwietnia 2022 (świat)
Reżyseria: Martin Campbell
Scenariusz: Dario Scardapane
Czas trwania: 1 godz. 54 min.


https://www.themoviedb.org/movie/818397-memory
https://www.filmweb.pl/film/Memory-2022-10001418
https://www.imdb.com/title/tt11827628/

Alex Lewis (Liam Neeson) jest doświadczonym zabójcą, znanym z dyskretnej precyzji. Pogrążony w moralnym bagnie Alex odmawia wykonania pracy, która narusza jego kodeks, i musi szybko wytropić i zabić ludzi, którzy go zatrudnili, zanim oni i agent FBI Vincent Serra (Guy Pearce) znajdą go pierwsi. Alex jest stworzony do zemsty, ale z pamięcią, która zaczyna słabnąć, jest zmuszony kwestionować każde swoje działanie, zacierając granicę między dobrem a złem.

Liam Neeson .... Alex Lewis
Monica Bellucci .... Davana Sealman
Guy Pearce .... Vincent Serra
Ray Fearon ....
Taj Atwal .... Linda Amistead
Harold Torres .... Hugo Marquez
Rebecca Calder .... Wendy Van Camp
Antonio Jaramillo .... Papa Leon


Video
ID : 1
Format : AVC
Format/Info : Advanced Video Codec
Format profile : [url=/cdn-cgi/l/email-protection][email protected][/url]
Format settings : CABAC / 4 Ref Frames
Format settings, CABAC : Yes
Format settings, Reference fra : 4 frames
Codec ID : avc1
Codec ID/Info : Advanced Video Coding
Duration : 1 h 53 min
Bit rate : 711 kb/s
Width : 960 pixels
Height : 400 pixels
Display aspect ratio : 2.40:1
Frame rate mode : Variable
Frame rate : 23.976 FPS
Minimum frame rate : 23.974 FPS
Maximum frame rate : 90 000.000 FPS
Color space : YUV
Chroma subsampling : 4:2:0
Bit depth : 8 bits
Scan type : Progressive
Bits/(PixelFrame) : 0.077
Stream size : 578 MiB (84)
Codec configuration box : avcC

Audio
ID : 2
Format : AAC LC
Format/Info : Advanced Audio Codec Low Complexity
Codec ID : mp4a-40-2
Duration : 1 h 53 min
Bit rate mode : Constant
Bit rate : 128 kb/s
Channel(s) : 2 channels
Channel layout : L R
Sampling rate : 48.0 kHz
Frame rate : 46.875 FPS (1024 SPF)
Compression mode : Lossy
Stream size : 104 MiB (15)
Language : Polish
Default : Yes
Alternate group : 1
Szczegóły torrenta
Hash
cc184fb7e392e57937b4409435fa8914734b3e6d
Aktualizacja
11/11/2022 16:02:36 (Kliknij na [uaktualnij] by odświeżyc statystyki seedów i leecherów).
Zobacz również
Komentarze


Brak komentarzy...


Wstecz