Witamy Guest Strona Główna Regulamin Kontakt
User: Hasło:
Stwórz darmowe konto Odzyskiwanie hasła i loginu

Kategorie
 » Wszystkie torrenty
Filmy
 » DVD-R1991  
 » VCD/SVCD77  
 » BluRay/x2647617  
 » DivX/XviD LEKTOR/NAPISY PL81853  
 » RMVB5970  
 » DivX/XviD ENG/...19183  
 » HD926  
 » 3D320  
Seriale
 » Seriale Polskie5336  
 » Seriale Zagraniczne26355  
Dla Dzieci
 » Bajki Pl/Eng1250  
Anime
 » Anime Pl129  
 » Anime1277  
Muzyka
 » Muzyka Polska/Zagraniczna36284  
 » Soundtracki535  
 » Teledyski/Koncerty2268  
Gry
 » Gry PC16207  
 » Gry PS2/PS3/PSP1102  
 » Gry Xbox1166  
 » Gry - Inne Konsole493  
GSM/PDA
 » Tapety GSM/PDA111  
 » Programy GSM/PDA358  
 » Filmy GSM/PDA124  
 » Dzwonki GSM/PDA115  
 » Gry GSM/PDA230  
Książki/Czasopisma
 » E-Booki18879  
 » Audio-Booki5296  
 » Czasopisma950  
 » Komiksy704  
Programy
 » Windows12022  
 » Linux369  
 » Macintosh97  
Inne
 » Śmieszne95  
 » Tapety2520  
 » Sport1409  
 » Pozostałe290  
Erotyka
 » Czasopisma125  
 » Zdjęcia 6869  
 » Filmy138454  
 » Gry 73  
 » Hentai+1853  
Archiwum


Pacyfik - The Pacific 2010 [miniserial] [DVDRip.x264] [Lektor PL]

Kategoria: Seriale Zagraniczne
Wstawił:  Ishimura
Dodano: 02/08/2021
Rozmiar: 3.51 GB
Seedów: 3
Leecherów: 0
Komentarze: 0

Info
Pierwszy odcinek: 14 marca 2010
Ostatni odcinek: 16 maja 2010
Kraj produkcji USA,Australia
Oryginalny język   angielski
Liczba odcinków 10

Opis

Przedstawia losy żołnierzy Piechoty Morskiej podczas wojny na Pacyfiku.

O filmie:

https://www.filmweb.pl/serial/Pacyfik-2010-119673

Obsada

Joseph Mazzello   Eugene &quotSledgehammer&quot Sledge
Jon Seda   John Basilone
James Badge Dale   Robert Leckie
William Sadler   Lewis &quotChesty&quot Puller
Ashton Holmes   Sid Phillips
Rami Malek   Merriell &quotSnafu&quot Shelton
Isabel Lucas   Gwen
Penny McNamee   Hope
Cariba Heine   Phyllis
Jacob Pitts   Bill &quotHoosier&quot Smith
Nikolai Nikolaeff   Rear Echelon Man
Brendan Fletcher   Bill Leyden
Matt Craven   Grant
Nathan Corddry   Loudmouth
Matthew Dale   John Marmet
Damon Herriman   Merrin
Grant Cartwright   Midnight
Ben Esler   Charles &quotChuck&quot Tatum
Joshua Close   Edward Sledge
Jon Bernthal   Manuel &quotManny&quot Rodriguez
Gary Sweet   Elmo &#39Gunny&#39 Haney
Martin McCann   R. V. Burgin
Keith Nobbs   Bud &quotRunner&quot Conley
Leon Ford   Edward &quotHillbilly&quot Jones
Freddie Joe Farnsworth   &quotStumpy&quot Stanley
Simon Bossell   Stern
Tom Budge   Ronnie Gibson
Braydn Michael   Robert Marshall
Scott Gibson   Andrew &quotAck Ack&quot Haldane
Joshua Biton   J. P. Morgan
Josh Helman   Lou &quotChuckler&quot Juergens
David Ludlow   Lil&#39One
Frank Lee   Chuck &quotCho&quot Yang
Henry Nixon   Hugh &quotIvy League&quot Corrigan
Dwight Braswell   Steve Evanson
Anna Torv
Mauricio Merino Jr   Handyboy
Karl Cottee   Pegg
Claire van der Boom   Stella
Mark Trezise
Ashley Zukerman   Mac
Annie Parisse   Lena Riggi Basilone

Dane Techniczne

Format                                   : MPEG-4
Format profile                           : Base Media
Codec ID                                 : isom (isom/iso2/avc1/mp41)
File size                                : 383 MiB
Duration                                 : 49 min 57 s
Overall bit rate                         : 1 071 kb/s
Writing application                      : Lavf55.0.100

Video
ID                                       : 1
Format                                   : AVC
Format/INFO                              : Advanced Video Codec
Format profile                           : HighL3
Format settings                          : CABAC / 4 Ref Frames
Format settings, CABAC                   : Yes
Format settings, Reference frames        : 4 frames
Codec ID                                 : avc1
Codec ID/INFO                            : Advanced Video Coding
Duration                                 : 49 min 57 s
Bit rate                                 : 807 kb/s
Width                                    : 704 pixels
Height                                   : 384 pixels
Display aspect ratio                     : 1.85:1
Frame rate mode                          : Constant
Frame rate                               : 30.000 FPS
Color space                              : YUV
Chroma subsampling                       : 4:2:0
Bit depth                                : 8 bits
Scan type                                : Progressive
Bits/(PixelFrame)                       : 0.099
Stream size                              : 288 MiB (75)
Writing library                          : x264 core 118
Encoding settings                        : cabac=1 / ref=3 / deblock=1:0:0 / analyse=0x3:0x113 / me=hex / subme=7 / psy=1 / psy_rd=1.00:0.00 /
Audio
ID                                       : 2
Format                                   : AAC LC
Format/INFO                              : Advanced Audio Codec Low Complexity
Codec ID                                 : mp4a-40-2
Duration                                 : 49 min 56 s
Duration_LastFrame                       : -11 ms
Bit rate mode                            : Constant
Bit rate                                 : 256 kb/s
Channel(s)                               : 6 channels
Channel layout                           : C L R Ls Rs LFE
Sampling rate                            : 48.0 kHz
Frame rate                               : 46.875 FPS (1024 SPF)
Compression mode                         : Lossy
Stream size                              : 91.4 MiB (24)
Default                                  : Yes
Alternate group                          : 1
Szczegóły torrenta
Hash
9ce99cfa4f82c9357dcb64e740525d85fbbc5bed
Aktualizacja
19/08/2021 11:00:30 (Kliknij na [uaktualnij] by odświeżyc statystyki seedów i leecherów).
Zobacz również
Komentarze


Brak komentarzy...


Wstecz