Witamy Guest Strona Główna Regulamin Kontakt
User: Hasło:
Stwórz darmowe konto Odzyskiwanie hasła i loginu

Kategorie
 » Wszystkie torrenty
Filmy
 » DVD-R1924  
 » VCD/SVCD75  
 » BluRay/x2645190  
 » DivX/XviD LEKTOR/NAPISY PL59774  
 » DivX/XviD ENG/...19116  
 » RMVB5955  
 » HD832  
 » 3D252  
Seriale
 » Seriale Polskie3535  
 » Seriale Zagraniczne19490  
Dla Dzieci
 » Bajki Pl/Eng1054  
Anime
 » Anime Pl118  
 » Anime1237  
Muzyka
 » Muzyka Polska/Zagraniczna18512  
 » Soundtracki371  
 » Teledyski/Koncerty2007  
Gry
 » Gry PC10774  
 » Gry PS2/PS3/PSP1080  
 » Gry Xbox1164  
 » Gry - Inne Konsole407  
GSM/PDA
 » Tapety GSM/PDA108  
 » Programy GSM/PDA329  
 » Filmy GSM/PDA123  
 » Dzwonki GSM/PDA113  
 » Gry GSM/PDA225  
Książki/Czasopisma
 » E-Booki9394  
 » Audio-Booki1296  
 » Czasopisma904  
 » Komiksy667  
Programy
 » Windows11320  
 » Linux365  
 » Macintosh94  
Inne
 » Tapety2388  
 » Śmieszne72  
 » Sport915  
 » Pozostałe275  
Erotyka
 » Czasopisma119  
 » Zdjęcia 6180  
 » Filmy75133  
 » Gry 66  
 » Hentai+1853  
Archiwum


Mumia 3D The Mummy *2017* (16:9) [mini HD 1080p 3D Half Over Under AC3 BluRay x264 SONDA] [Lektor PL]

Kategoria: 3D
Wstawił:  Sonda
Dodano: 24/09/2017
Rozmiar: 3.99 GB
Seedów: 8
Leecherów: 3
Komentarze: 0

https://i.imgur.com/T7a0JUA.jpg

Film w wersji 3D Over-Under.
Do odtworzenia filmu WYMAGANY odpowiedni sprzęt (TV 3D)
==========================================
UWAGA: Po prawej i lewej stronie obraz został wycięty do 248p,
co umożliwia wyświetlanie na telewizorze pełnoekranowego obrazu
(bez czarnych pasów) w formacie (16:9) bez zmiany proporcji.
Taki zabieg moim zdaniem poprawia dużo bardziej efekt 3D.
Jedyną wadą jest przycięcie obrazu po obu bokach ekranu,
no ale niestety coś za coś
Wszystkich chętnych zapraszam do przetestowania !!!!!
================================================

gatunek: Fantasy,Przygodowy
produkcja: USA
premiera: 9 czerwca 2017 (Polska) 22 maja 2017 (świat)
reżyseria: Alex Kurtzman
scenariusz: Christopher McQuarrie,David Koepp,Dylan Kussman

http://www.imdb.com/title/tt2345759/

Obsada:

Tom Cruise ... Nick Morton
Russell Crowe ... Dr Henry Jekyll
Annabelle Wallis ... Jenny Halsey
Sofia Boutella ... Ahmanet
Jake Johnson ... Chris Vail
Courtney B. Vance ... Pułkownik Greenway
Marwan Kenzari ... Malik
Simon Atherton ... Krzyżowiec

Opis:

Przez wieki spoczywająca w grobowcu ukrytym w piaskach pustyni starożytna księżniczka (znana ze „Star Trek: W nieznane” Sofia Boutella), której przeznaczenie nie zdążyło się wypełnić, budzi się w dzisiejszych czasach. Jej złość na niesprawiedliwość, która ją spotkała, rosła przez tysiące lat, przybierając rozmiary wymykające się ludzkiej wyobraźni. Od gorących piachów pustyni, przez tajemnicze labirynty ukryte pod dzisiejszym Londynem Mumia budzi nowy wszechświat bogów i potworów.

Storyline:

Though safely entombed in a crypt deep beneath the unforgiving desert, an ancient princess, whose destiny was unjustly taken from her, is awakened in our current day bringing with her malevolence grown over millennia, and terrors that defy human comprehension.

Screenshot:

https://i.imgur.com/46CsXo4.jpg
https://i.imgur.com/kpGt2RQ.jpg
https://i.imgur.com/4CYuXia.jpg
https://i.imgur.com/5dwwjiu.jpg


Dane techniczne:

General
Format                         : Matroska
Format version                 : Version 2
File size                      : 3.99 GiB
Duration                       : 1 h 50 min
Overall bit rate               : 5 187 kb/s
Movie name                     : The.Mummy.3D.2017.PL.HOU.BDRip.1080p(16:9)Sonda
Encoded date                   : UTC 2017-09-23 18:15:33
Writing application            : mkvmerge v5.7.0 ('The Whirlwind&#039 built on Jul  8 2012 20:08:51
Writing library                : libebml v1.2.3 + libmatroska v1.3.0

Video
ID                             : 1
Format                         : AVC
Format/Info                    : Advanced Video Codec
Format profile                 : High@L4.1
Format settings, CABAC         : Yes
Format settings, ReFrames      : 2 frames
Codec ID                       : V_MPEG4/ISO/AVC
Duration                       : 1 h 50 min
Bit rate                       : 4 636 kb/s
Width                          : 1 920 pixels
Height                         : 1 080 pixels
Display aspect ratio           : 16:9
Frame rate mode                : Constant
Frame rate                     : 23.976 (24000/1001) FPS
Color space                    : YUV
Chroma subsampling             : 4:2:0
Bit depth                      : 8 bits
Scan type                      : Progressive
Bits/(Pixel*Frame)             : 0.093
Stream size                    : 3.56 GiB (89%)
Title                          : Rip by Sonda
Writing library                : x264 core
Default                        : Yes
Forced                         : No
Color range                    : Limited
Color primaries                : BT.709
Transfer characteristics       : BT.709
Matrix coefficients            : BT.709

Audio
ID                             : 2
Format                         : AC-3
Format/Info                    : Audio Coding 3
Format settings, Endianness    : Big
Codec ID                       : A_AC3
Duration                       : 1 h 50 min
Bit rate mode                  : Constant
Bit rate                       : 448 kb/s
Channel(s)                     : 6 channels
Channel positions              : Front: L C R, Side: L R, LFE
Sampling rate                  : 48.0 kHz
Frame rate                     : 31.250 FPS (1536 spf)
Bit depth                      : 16 bits
Compression mode               : Lossy
Stream size                    : 353 MiB (9%)
Title                          : AC3 5.1 Lektor PL
Language                       : Polish
Service kind                   : Complete Main
Default                        : Yes
Forced                         : No

Menu
00:00:00.000                   : en01)00:00:00:000
00:05:00.000                   : en02)00:05:00:000
00:10:00.000                   : en03)00:10:00:000
00:15:00.000                   : en04)00:15:00:000
00:20:00.000                   : en05)00:20:00:000
00:25:00.000                   : en06)00:25:00:000
00:30:00.000                   : en07)00:30:00:000
00:35:00.000                   : en000:35:00:000
00:40:00.000                   : en09)00:40:00:000
00:45:00.000                   : en10)00:45:00:000
00:50:00.000                   : en11)00:50:00:000
00:55:00.000                   : en12)00:55:00:000
01:00:00.000                   : en13)01:00:00:000
01:05:00.000                   : en14)01:05:00:000
01:10:00.000                   : en15)01:10:00:000
01:15:00.000                   : en16)01:15:00:000
01:20:00.000                   : en17)01:20:00:000
01:25:00.000                   : en101:25:00:000
01:30:00.000                   : en19)01:30:00:000
01:35:00.000                   : en20)01:35:00:000
01:40:00.000                   : en21)01:40:00:000
01:45:00.000                   : en22)01:45:00:000
01:50:00.000                   : en23)01:50:00:000

Source:
V- BDRemux 2D/3D
Lektor PL - BD
Thanks - Sonda

Szczegóły torrenta
Hash
3ab1099462adbe7e90ee5b77e89fff74d3b89c92
Aktualizacja
18/07/2018 12:45:57 (Kliknij na [uaktualnij] by odświeżyc statystyki seedów i leecherów).
Zobacz również
Komentarze


Brak komentarzy...


Wstecz