Witamy Guest Strona Główna Regulamin Kontakt
User: Hasło:
Stwórz darmowe konto Odzyskiwanie hasła i loginu

Kategorie
 » Wszystkie torrenty
Filmy
 » DVD-R1998  
 » VCD/SVCD77  
 » BluRay/x2649961  
 » DivX/XviD LEKTOR/NAPISY PL95604  
 » RMVB5972  
 » DivX/XviD ENG/...19187  
 » HD1284  
 » 3D320  
Seriale
 » Seriale Polskie6630  
 » Seriale Zagraniczne28846  
Dla Dzieci
 » Bajki Pl/Eng1328  
Anime
 » Anime Pl136  
 » Anime1288  
Muzyka
 » Muzyka Polska/Zagraniczna40176  
 » Soundtracki548  
 » Teledyski/Koncerty2379  
Gry
 » Gry PC16983  
 » Gry PS2/PS3/PSP1104  
 » Gry Xbox1168  
 » Gry - Inne Konsole495  
GSM/PDA
 » Tapety GSM/PDA111  
 » Programy GSM/PDA361  
 » Filmy GSM/PDA124  
 » Dzwonki GSM/PDA115  
 » Gry GSM/PDA234  
Książki/Czasopisma
 » E-Booki19649  
 » Audio-Booki7204  
 » Czasopisma1019  
 » Komiksy747  
Programy
 » Windows12112  
 » Linux376  
 » Macintosh107  
Inne
 » Śmieszne109  
 » Tapety2521  
 » Sport1780  
 » Pozostałe290  
Erotyka
 » Czasopisma125  
 » Zdjęcia 6942  
 » Filmy162939  
 » Gry 67  
 » Hentai+1854  
Archiwum


Call My Agent [S02] [720p] [NF] [WEB-DL] [X264-J] [Lektor PL]

Kategoria: Seriale Zagraniczne
Wstawił:  Ishimura
Dodano: 06/04/2020
Rozmiar: 6.42 GB
Seedów: 0
Leecherów: 1
Komentarze: 0

Info

Produkcja: Francja
Gatunek: Dramat, Komedia
Twórca: Fanny Herrero
Platforma: Netflix
Premiera: 14.10.2015

Opis

Prestiżowa paryska agencja aktorska wpada w nieoczekiwane kłopoty, ale robi wszystko, by zadowolić swoich słynnych klientów.

Obsada

Screenshot / Wideo

https://www.youtube.com/watch?v=lmbD3DwItZo

Dane Techniczne

Format                      : Matroska
Format version              : Version 4 / Version 2
File size                   : 1.11 GiB
Duration                    : 55 min 26 s
Overall bit rate mode       : Variable
Overall bit rate            : 2 863 kb/s
Encoded date                : UTC 2019-01-20 15:32:01
Writing application         : mkvmerge v30.1.0 (&#39Forever And More&#39) 64-bit
Writing library             : libebml v1.3.6 + libmatroska v1.4.9

Video
ID                          : 1
Format                      : AVC
Format/Info                 : Advanced Video Codec
Format profile              : MainL3.1
Format settings             : CABAC / 3 Ref Frames
Format settings, CABAC      : Yes
Format settings, ReFrames   : 3 frames
Codec ID                    : V_MPEG4/ISO/AVC
Duration                    : 55 min 26 s
Bit rate mode               : Variable
Bit rate                    : 2 490 kb/s
Maximum bit rate            : 3 735 kb/s
Width                       : 1 280 pixels
Height                      : 720 pixels
Display aspect ratio        : 16:9
Frame rate mode             : Constant
Frame rate                  : 25.000 FPS
Color space                 : YUV
Chroma subsampling          : 4:2:0
Bit depth                   : 8 bits
Scan type                   : Progressive
Bits/(PixelFrame)          : 0.108
Stream size                 : 982 MiB (87)
Writing library             : x264 core 118
Encoding settings           : cabac=1 / ref=3 / deblock=1:0:0 / analyse=0x1:0x111 / me=umh / subme=10 / psy=1 / psy_rd=1.00:0.00 / mixed_ref=1 / me_range=24 / chroma_me=1 / trellis=2 / 8x8dct=0 / cqm=0 / deadzone=21,11 / fast_pskip=1 / chroma_qp_offset=-2 / threads=8 / sliced_threads=0 / nr=0 / decimate=1 / interlaced=0 / bluray_compat=0 / constrained_intra=0 / bframes=2 / b_pyramid=0 / b_adapt=2 / b_bias=0 / direct=3 / weightb=1 / open_gop=0 / weightp=2 / keyint=50 / keyint_min=26 / scenecut=0 / intra_refresh=0 / rc_lookahead=0 / rc=2pass / mbtree=1 / bitrate=2490 / ratetol=1.0 / qcomp=0.50 / qpmin=6 / qpmax=51 / qpstep=4 / cplxblur=20.0 / qblur=0.5 / vbv_maxrate=3735 / vbv_bufsize=4980 / nal_hrd=vbr / ip_ratio=1.40 / aq=1:1.00
Language                    : English
Default                     : Yes
Forced                      : No

Audio
ID                          : 2
Format                      : AC-3
Format/Info                 : Audio Coding 3
Codec ID                    : A_AC3
Duration                    : 55 min 26 s
Bit rate mode               : Constant
Bit rate                    : 384 kb/s
Channel(s)                  : 6 channels
Channel positions           : Front: L C R, Side: L R, LFE
Sampling rate               : 48.0 kHz
Frame rate                  : 31.250 FPS (1536 SPF)
Bit depth                   : 16 bits
Compression mode            : Lossy
Stream size                 : 152 MiB (13)
Language                    : Polish
Service kind                : Complete Main
Default                     : Yes
Forced                      : No
Szczegóły torrenta
Hash
a77cd10fcd7acad4b1eec7560a0f1778e4007ec2
Aktualizacja
12/12/2022 08:38:16 (Kliknij na [uaktualnij] by odświeżyc statystyki seedów i leecherów).
Zobacz również
Komentarze


Brak komentarzy...


Wstecz