Witamy Guest Strona Główna Regulamin Kontakt
User: Hasło:
Stwórz darmowe konto Odzyskiwanie hasła i loginu

Kategorie
 » Wszystkie torrenty
Filmy
 » DVD-R1994  
 » VCD/SVCD77  
 » BluRay/x2648419  
 » DivX/XviD LEKTOR/NAPISY PL93178  
 » RMVB5972  
 » DivX/XviD ENG/...19186  
 » HD1099  
 » 3D320  
Seriale
 » Seriale Polskie6146  
 » Seriale Zagraniczne27901  
Dla Dzieci
 » Bajki Pl/Eng1303  
Anime
 » Anime Pl135  
 » Anime1285  
Muzyka
 » Muzyka Polska/Zagraniczna38792  
 » Soundtracki548  
 » Teledyski/Koncerty2306  
Gry
 » Gry PC18435  
 » Gry PS2/PS3/PSP1104  
 » Gry Xbox1167  
 » Gry - Inne Konsole494  
GSM/PDA
 » Tapety GSM/PDA111  
 » Programy GSM/PDA361  
 » Filmy GSM/PDA124  
 » Dzwonki GSM/PDA115  
 » Gry GSM/PDA232  
Książki/Czasopisma
 » E-Booki19313  
 » Audio-Booki7157  
 » Czasopisma963  
 » Komiksy705  
Programy
 » Windows12098  
 » Linux375  
 » Macintosh106  
Inne
 » Śmieszne107  
 » Tapety2521  
 » Sport1685  
 » Pozostałe290  
Erotyka
 » Czasopisma125  
 » Zdjęcia 6937  
 » Filmy158735  
 » Gry 86  
 » Hentai+1854  
Archiwum


Devs 2020 [S01E06] [1080p] [HULU] [WEB-DL] [DD2.0] [H264] [666] [Lektor PL]

Kategoria: Seriale Zagraniczne
Wstawił:  Ishimura
Dodano: 02/04/2020
Rozmiar: 962.94 MB
Seedów: 22
Leecherów: 2
Komentarze: 0

Info

Produkcja... USA
Gatunek... Thriller, Sci-Fi
Twórca... Alex Garland
Premiera... 5.03.2020

Opis

Devs opowiada o młodej programistce imieniem Lily Chan (Sonoya Mizuno), która pracuje dla korporacji Amaya. Po rzekomym samobójstwie jej chłopaka, Lily podejrzewa, że ktoś go zabił i rozpoczyna śledztwo. Wkrótce odkrywa, że wszystkie tropy prowadzą do Foresta (Nick Offerman), enigmatycznego prezesa Amayi i do tajemniczego działu Devs. Bohaterka odkrywa konspirację związaną z niesamowitą technologią, która może zmienić świat.
Reżyserem, scenarzystą, oraz producentem wykonawczym projektu jest Alex Garland, który pracował wcześniej przy takich hitach jak &quotEx Machina&quot, &quotAnihilacja&quot czy &quot28 dni później&quot.

Obsada

Karl Glusman ... Sergei
Zach Grenier ... Kenton
Nick Offerman ... Forest
Alison Pill ... Katie
Akshay Kumar ... Ray
Sonoya Mizuno ... Lily Chan

https://www.youtube.com/watch?v=Fp9LMsI6uJ8

Dane Techniczne

Format                      : Matroska
Format version              : Version 4 / Version 2
File size                   : 963 MiB
Duration                    : 51 min 27 s
Overall bit rate            : 2 616 kb/s
Encoded date                : UTC 2020-04-02 09:25:56
Writing application         : mkvmerge v39.0.0 (&#39In The Waiting Line&#39) 64-bit
Writing library             : libebml v1.3.9 + libmatroska v1.5.2

Video
ID                          : 1
Format                      : AVC
Format/Info                 : Advanced Video Codec
Format profile              : HighL4
Format settings             : CABAC / 4 Ref Frames
Format settings, CABAC      : Yes
Format settings, ReFrames   : 4 frames
Codec ID                    : V_MPEG4/ISO/AVC
Duration                    : 51 min 27 s
Bit rate                    : 2 294 kb/s
Width                       : 1 920 pixels
Height                      : 1 080 pixels
Display aspect ratio        : 16:9
Frame rate mode             : Constant
Frame rate                  : 23.976 (24000/1001) FPS
Color space                 : YUV
Chroma subsampling          : 4:2:0
Bit depth                   : 8 bits
Scan type                   : Progressive
Bits/(PixelFrame)          : 0.046
Stream size                 : 845 MiB (8
Language                    : English
Default                     : Yes
Forced                      : No

Audio
ID                          : 2
Format                      : AC-3
Format/Info                 : Audio Coding 3
Codec ID                    : A_AC3
Duration                    : 51 min 27 s
Bit rate mode               : Constant
Bit rate                    : 320 kb/s
Channel(s)                  : 2 channels
Channel positions           : Front: L R
Sampling rate               : 48.0 kHz
Frame rate                  : 31.250 FPS (1536 SPF)
Bit depth                   : 16 bits
Compression mode            : Lossy
Stream size                 : 118 MiB (12)
Language                    : Polish
Service kind                : Complete Main
Default                     : Yes
Forced                      : No
Szczegóły torrenta
Hash
67ebc946a70853bcf2c6f943ba0ae813211bce19
Aktualizacja
10/04/2020 17:19:14 (Kliknij na [uaktualnij] by odświeżyc statystyki seedów i leecherów).
Zobacz również
Komentarze


Brak komentarzy...


Wstecz