Witamy Guest Strona Główna Regulamin Kontakt
User: Hasło:
Stwórz darmowe konto Odzyskiwanie hasła i loginu

Kategorie
 » Wszystkie torrenty
Filmy
 » DVD-R1929  
 » VCD/SVCD75  
 » BluRay/x2645344  
 » DivX/XviD LEKTOR/NAPISY PL60328  
 » DivX/XviD ENG/...19108  
 » RMVB5955  
 » HD832  
 » 3D260  
Seriale
 » Seriale Polskie3548  
 » Seriale Zagraniczne19677  
Dla Dzieci
 » Bajki Pl/Eng1063  
Anime
 » Anime Pl119  
 » Anime1237  
Muzyka
 » Muzyka Polska/Zagraniczna18771  
 » Soundtracki372  
 » Teledyski/Koncerty2021  
Gry
 » Gry PC10931  
 » Gry PS2/PS3/PSP1080  
 » Gry Xbox1164  
 » Gry - Inne Konsole407  
GSM/PDA
 » Tapety GSM/PDA108  
 » Programy GSM/PDA329  
 » Filmy GSM/PDA123  
 » Dzwonki GSM/PDA113  
 » Gry GSM/PDA225  
Książki/Czasopisma
 » E-Booki9446  
 » Audio-Booki1364  
 » Czasopisma904  
 » Komiksy668  
Programy
 » Windows11334  
 » Linux365  
 » Macintosh94  
Inne
 » Tapety2388  
 » Śmieszne72  
 » Sport934  
 » Pozostałe275  
Erotyka
 » Czasopisma119  
 » Zdjęcia 6180  
 » Filmy75177  
 » Gry 66  
 » Hentai+1853  
Archiwum


BattleBots 2015 S02E06 720p HDTV x264 W4F[ENG]

Kategoria: Seriale Zagraniczne
Wstawił:  ukulele
Dodano: 06/08/2016
Rozmiar: 1.84 GB
Seedów: 163
Leecherów: 54
Komentarze: 0




-W4F Releasing TV since 2002-

Proudly Presents

BattleBots.2015.S02E06.720p.HDTV.x264-W4F

RELEASE iNFO

Release Date    2016.08.05
Air Date        2016.08.04
Genre           Reality

EPiSODE iNFO

Not So Sweet 16: The Round of 16 Part 1

Enjoy!

W4F GROUP NEWS

W4F is one of the oldest TV scene groups, founded and supported on an
ethos of releasing purely for fun. We pride ourselves in releasing
quality programming in a variety of formats to include reality,
scripted, documentary and animation.

We are still actively interested in finding capable individuals who
would like to join the W4F family. Potential recruits will be US based
and able to capture HDTV content with knowledge of digital capture
methods, e.g. using HDHomeRun, Ceton, Set-top box (STB) firewire
output.

We are also interested in recruiting those who can capture either
Netflix or Amazon originals.

Email: w4f@tuta.io

W4F has nothing to do with torrents/p2p so don't ask about that!

Occasionally we are also interested in hearing from site owners who
are interested in affiliating W4F. Private links with archives only.

Greets to all W4F/CLASSiCW4F members, both past and present.

[+] Show MediaInfo
Video
ID                                       : 1
Format                                   : AVC
Format/Info                              : Advanced Video Codec
Format profile                           : High@L4.1
Format settings, CABAC                   : Yes
Format settings, ReFrames                : 5 frames
Codec ID                                 : V_MPEG4/ISO/AVC
Duration                                 : 41mn 42s
Bit rate                                 : 5 941 Kbps
Width                                    : 1 280 pixels
Height                                   : 718 pixels
Display aspect ratio                     : 16:9
Frame rate mode                          : Constant
Frame rate                               : 59.940 (60000/1001) fps
Color space                              : YUV
Chroma subsampling                       : 4:2:0
Bit depth                                : 8 bits
Scan type                                : Progressive
Bits/(Pixel*Frame)                       : 0.108
Stream size                              : 1.73 GiB (94%)
Writing library                          : x264 core 148 r2705 3f5ed56
Encoding settings                        : cabac=1 / ref=5 / deblock=1:0:0 / analyse=0x3:0x113 / me=umh / subme=8 / psy=1 / psy_rd=1.00:0.00 / mixed_ref=1 / me_range=16 / chroma_me=1 / trellis=1 / 8x8dct=1 / cqm=0 / deadzone=21,11 / fast_pskip=1 / chroma_qp_offset=-2 / threads=12 / lookahead_threads=2 / sliced_threads=0 / nr=0 / decimate=1 / interlaced=0 / bluray_compat=0 / constrained_intra=0 / bframes=3 / b_pyramid=2 / b_adapt=2 / b_bias=0 / direct=3 / weightb=1 / open_gop=0 / weightp=2 / keyint=250 / keyint_min=25 / scenecut=40 / intra_refresh=0 / rc_lookahead=50 / rc=crf / mbtree=1 / crf=20.0 / qcomp=0.60 / qpmin=0 / qpmax=69 / qpstep=4 / ip_ratio=1.40 / aq=1:1.00
Default                                  : Yes
Forced                                   : No

Audio
ID                                       : 2
Format                                   : AC-3
Format/Info                              : Audio Coding 3
Mode extension                           : CM (complete main)
Format settings, Endianness              : Big
Codec ID                                 : A_AC3
Duration                                 : 41mn 41s
Bit rate mode                            : Constant
Bit rate                                 : 384 Kbps
Channel(s)                               : 6 channels
Channel positions                        : Front: L C R, Side: L R, LFE
Sampling rate                            : 48.0 KHz
Frame rate                               : 31.250 fps (1536 spf)
Compression mode                         : Lossy
Stream size                              : 115 MiB (6%)
Language                                 : English
Default                                  : Yes
Forced                                   : No

Text
ID                                       : 3
Format                                   : UTF-8
Codec ID                                 : S_TEXT/UTF8
Codec ID/Info                            : UTF-8 Plain Text
Duration                                 : 41mn 5s
Bit rate                                 : 138 bps
Count of elements                        : 920
Stream size                              : 41.8 KiB (0%)
Language                                 : English
Default                                  : No
Forced                                   : No


Szczegóły torrenta
Hash
34a4c70897f0f33d8a1ba701a91734eb007ded76
Aktualizacja
06/08/2016 06:25:35 (Kliknij na [uaktualnij] by odświeżyc statystyki seedów i leecherów).
Zobacz również
Komentarze


Brak komentarzy...


Wstecz