Witamy Guest Strona Główna Regulamin Kontakt
User: Hasło:
Stwórz darmowe konto Odzyskiwanie hasła i loginu

Kategorie
 » Wszystkie torrenty
Filmy
 » DVD-R1987  
 » VCD/SVCD77  
 » BluRay/x2647209  
 » DivX/XviD LEKTOR/NAPISY PL77315  
 » RMVB5968  
 » DivX/XviD ENG/...19181  
 » HD896  
 » 3D320  
Seriale
 » Seriale Polskie5033  
 » Seriale Zagraniczne25687  
Dla Dzieci
 » Bajki Pl/Eng1187  
Anime
 » Anime Pl129  
 » Anime1277  
Muzyka
 » Muzyka Polska/Zagraniczna34867  
 » Soundtracki532  
 » Teledyski/Koncerty2253  
Gry
 » Gry PC15185  
 » Gry PS2/PS3/PSP1102  
 » Gry Xbox1165  
 » Gry - Inne Konsole488  
GSM/PDA
 » Tapety GSM/PDA111  
 » Programy GSM/PDA356  
 » Filmy GSM/PDA124  
 » Dzwonki GSM/PDA115  
 » Gry GSM/PDA230  
Książki/Czasopisma
 » E-Booki18545  
 » Audio-Booki3989  
 » Czasopisma948  
 » Komiksy704  
Programy
 » Windows11951  
 » Linux367  
 » Macintosh97  
Inne
 » Śmieszne92  
 » Tapety2511  
 » Sport1305  
 » Pozostałe290  
Erotyka
 » Czasopisma124  
 » Zdjęcia 6747  
 » Filmy130273  
 » Gry 70  
 » Hentai+1853  
Archiwum


Han Solo: Gwiezdne wojny historie / Solo A Star Wars Story 2018 [1080p] [3D BluRay Half SBS x264 TrueHD 7 1 Atmos FGT] [Dubbing & Napisy PL] [ENG]

Kategoria: 3D
Wstawił:  Ishimura
Dodano: 24/09/2018
Rozmiar: 21.37 GB
Seedów: 3
Leecherów: 1
Komentarze: 0

Pobrałeś/aś podziękuj sedując . Daj szanse innym pobrać

INFO:

Tytuł: Han Solo: Gwiezdne wojny - historie
Tytuł ENG: Solo: A Star Wars Story
Ocena: IMDB - 7.1/10 (116.785) | Filmweb - 7.0/10 (28.012)
Produkcja: USA
Gatunek: Przygodowy | Sci-Fi
Czas trwania: 134 min.
Premiera: 25.05.2018 - Polska | 10.05.2018 - Świat
Reżyseria: Ron Howard
Scenariusz: Lawrence Kasdan | Jon Kasdan

https://www.youtube.com/watch?v=EDyYn7EAzNM

OPIS:

Han Solo (Alden Ehrenreich) to autsajder, który podróżuje przez galaktykę swoim statkiem. Podczas śmiałych eskapad w głąb przestępczego półświatka poznaje wspaniałego Chewbaccę (Joonas Suotamo), swojego drugiego pilota. Spotyka też uzależnionego od hazardu Lando Calrissiana (Donald Glover). Wyprawa ta ukształtuje go na jednego z największych bohaterów sagi &quotGwiezdnych wojen&quot.

OBSADA:

Alden Ehrenreich .... Han Solo
Joonas Suotamo .... Chewbacca
Woody Harrelson .... Tobias Beckett
Emilia Clarke .... QiRa
Donald Glover .... Lando Calrissian
Thandie Newton .... Val
Phoebe Waller-Bridge .... L3-37
Paul Bettany .... Dryden Vos

DANE TECH:

Video
ID : 1
Format : AVC
Format/Info : Advanced Video Codec
Format profile : High at L4.1
Format settings : CABAC / 3 Ref Frames
Format settings, CABAC : Yes
Format settings, ReFrames : 3 frames
Codec ID : V_MPEG4/ISO/AVC
Duration : 2 h 14 min
Bit rate : 15.5 Mb/s
Width : 1 920 pixels
Height : 1 080 pixels
Display aspect ratio : 16:9
Frame rate mode : Constant
Frame rate : 23.976 (24000/1001) FPS
Color space : YUV
Chroma subsampling : 4:2:0
Bit depth : 8 bits
Scan type : Progressive
Bits/(PixelFrame) : 0.312
Stream size : 14.5 GiB (6
Title : Solo.A.Star.Wars.Story.2018.1080p.3D.BluRay.BluRay.Half-SBS.x264.TrueHD.7.1.Atmos-FGT
Writing library : x264 core 148
Encoding settings : cabac=1 / ref=3 / deblock=1:-1:-1 / analyse=0x3:0 / me=hex / subme=5 / psy=1 / psy_rd=1.00:0.00 / mixed_ref=0 / me_range=16 / chroma_me=1 / trellis=1 / 8x8dct=1 / cqm=0 / deadzone=21,11 / fast_pskip=0 / chroma_qp_offset=0 / threads=24 / lookahead_threads=6 / sliced_threads=0 / nr=0 / decimate=1 / interlaced=0 / bluray_compat=0 / constrained_intra=0 / bframes=2 / b_pyramid=0 / b_adapt=1 / b_bias=0 / direct=1 / weightb=0 / open_gop=0 / weightp=0 / keyint=24 / keyint_min=2 / scenecut=40 / intra_refresh=0 / rc=abr / mbtree=0 / bitrate=15500 / ratetol=1.0 / qcomp=0.60 / qpmin=0 / qpmax=69 / qpstep=4 / ip_ratio=1.40 / pb_ratio=1.30 / aq=1:1.00
Default : Yes
Forced : No
Color range : Limited
Color primaries : BT.709
Transfer characteristics : BT.709
Matrix coefficients : BT.709

Audio #1
ID : 2
Format : TrueHD
Format profile : TrueHD+Atmos / TrueHD
Codec ID : A_TRUEHD
Duration : 2 h 14 min
Bit rate mode : Variable
Bit rate : 4 981 kb/s
Maximum bit rate : 4 647 kb/s
Channel(s) : Object Based / 8 channels
Channel positions : Object Based / Front: L C R, Side: L R, Back: L R, LFE
Sampling rate : / 48.0 kHz
Frame rate : 1 200.000 FPS (40 SPF)
Compression mode : Lossless
Stream size : 4.69 GiB (22)
Title : Solo.A.Star.Wars.Story.2018.1080p.3D.BluRay.BluRay.Half-SBS.x264.TrueHD.7.1.Atmos-FGT
Language : English
Default : Yes
Forced : No

Audio #2
ID : 3
Format : AC-3
Format/Info : Audio Coding 3
Codec ID : A_AC3
Duration : 2 h 14 min
Bit rate mode : Constant
Bit rate : 640 kb/s
Channel(s) : 6 channels
Channel positions : Front: L C R, Side: L R, LFE
Sampling rate : 48.0 kHz
Frame rate : 31.250 FPS (1536 SPF)
Bit depth : 16 bits
Compression mode : Lossy
Stream size : 617 MiB (3)
Title : Solo.A.Star.Wars.Story.2018.1080p.3D.BluRay.BluRay.Half-SBS.x264.TrueHD.7.1.Atmos-FGT
Language : English
Service kind : Complete Main
Default : No
Forced : No

Audio #3
ID : 4
Format : E-AC-3
Format/Info : Enhanced Audio Coding 3
Codec ID : A_EAC3
Duration : 2 h 14 min
Bit rate mode : Constant
Bit rate : 500 b/s
Channel(s) : 8 channels
Channel(s)_Original : 6 channels
Channel positions : Front: L C R, Side: L R, LFE
Sampling rate : 48.0 kHz
Frame rate : 187.500 FPS (256 SPF)
Compression mode : Lossy
Stream size : 864 MiB (4)
Title : Solo.A.Star.Wars.Story.2018.1080p.3D.BluRay.BluRay.Half-SBS.x264.TrueHD.7.1.Atmos-FGT
Language : German
Service kind : Complete Main
Default : No
Forced : No

Audio #4
ID : 5
Format : AC-3
Format/Info : Audio Coding 3
Codec ID : A_AC3
Duration : 2 h 14 min
Bit rate mode : Constant
Bit rate : 640 kb/s
Channel(s) : 6 channels
Channel positions : Front: L C R, Side: L R, LFE
Sampling rate : 48.0 kHz
Frame rate : 31.250 FPS (1536 SPF)
Bit depth : 16 bits
Compression mode : Lossy
Stream size : 617 MiB (3)
Title : Solo.A.Star.Wars.Story.2018.1080p.3D.BluRay.BluRay.Half-SBS.x264.TrueHD.7.1.Atmos-FGT
Language : Polish
Service kind : Complete Main
Default : No
Forced : No

Text #1
ID : 6
Format : PGS
Muxing mode : zlib
Codec ID : S_HDMV/PGS
Codec ID/Info : Picture based subtitle format used on BDs/HD-DVDs
Duration : 2 h 5 min
Bit rate : 57.0 kb/s
Count of elements : 4496
Stream size : 51.1 MiB (0)
Title : English-PGS
Language : English
Default : Yes
Forced : No

Text #2
ID : 7
Format : PGS
Muxing mode : zlib
Codec ID : S_HDMV/PGS
Codec ID/Info : Picture based subtitle format used on BDs/HD-DVDs
Duration : 2 h 7 min
Bit rate : 47.0 kb/s
Count of elements : 3482
Stream size : 42.8 MiB (0)
Title : German-PGS
Language : German
Default : No
Forced : No

Text #3
ID : 8
Format : PGS
Muxing mode : zlib
Codec ID : S_HDMV/PGS
Codec ID/Info : Picture based subtitle format used on BDs/HD-DVDs
Duration : 2 h 7 min
Bit rate : 42.9 kb/s
Count of elements : 3612
Stream size : 39.1 MiB (0)
Title : Polish-PGS
Language : Polish
Default : No
Forced : No

Text #4
ID : 9
Format : PGS
Muxing mode : zlib
Codec ID : S_HDMV/PGS
Codec ID/Info : Picture based subtitle format used on BDs/HD-DVDs
Duration : 1 h 17 min
Bit rate : 569 b/s
Count of elements : 32
Stream size : 321 KiB (0)
Title : English-FORCED-PGS
Language : English
Default : No
Forced : No

Text #5
ID : 10
Format : PGS
Muxing mode : zlib
Codec ID : S_HDMV/PGS
Codec ID/Info : Picture based subtitle format used on BDs/HD-DVDs
Duration : 1 h 17 min
Bit rate : 693 b/s
Count of elements : 32
Stream size : 392 KiB (0)
Title : German-FORCED-PGS
Language : German
Default : No
Forced : No

Text #6
ID : 11
Format : PGS
Muxing mode : zlib
Codec ID : S_HDMV/PGS
Codec ID/Info : Picture based subtitle format used on BDs/HD-DVDs
Duration : 1 h 17 min
Bit rate : 517 b/s
Count of elements : 32
Stream size : 292 KiB (0)
Title : Polish-FORCED-PGS
Language : Polish
Default : No
Forced : No
Szczegóły torrenta
Hash
7c51f7fa37324b03f114e7ded2ebc930a4f06d3a
Aktualizacja
06/01/2021 13:10:51 (Kliknij na [uaktualnij] by odświeżyc statystyki seedów i leecherów).
Zobacz również
Komentarze


Brak komentarzy...


Wstecz