Witamy Guest Strona Główna Regulamin Kontakt
User: Hasło:
Stwórz darmowe konto Odzyskiwanie hasła i loginu

Kategorie
 » Wszystkie torrenty
Filmy
 » DVD-R1986  
 » VCD/SVCD77  
 » BluRay/x2647096  
 » DivX/XviD LEKTOR/NAPISY PL75985  
 » RMVB5968  
 » DivX/XviD ENG/...19181  
 » HD888  
 » 3D319  
Seriale
 » Seriale Polskie4649  
 » Seriale Zagraniczne25280  
Dla Dzieci
 » Bajki Pl/Eng1161  
Anime
 » Anime Pl129  
 » Anime1277  
Muzyka
 » Muzyka Polska/Zagraniczna33932  
 » Soundtracki528  
 » Teledyski/Koncerty2236  
Gry
 » Gry PC14543  
 » Gry PS2/PS3/PSP1099  
 » Gry Xbox1165  
 » Gry - Inne Konsole445  
GSM/PDA
 » Tapety GSM/PDA111  
 » Programy GSM/PDA356  
 » Filmy GSM/PDA124  
 » Dzwonki GSM/PDA115  
 » Gry GSM/PDA230  
Książki/Czasopisma
 » E-Booki18286  
 » Audio-Booki3752  
 » Czasopisma946  
 » Komiksy704  
Programy
 » Windows11858  
 » Linux367  
 » Macintosh96  
Inne
 » Śmieszne91  
 » Tapety2506  
 » Sport1273  
 » Pozostałe290  
Erotyka
 » Czasopisma123  
 » Zdjęcia 6716  
 » Filmy127128  
 » Gry 68  
 » Hentai+1853  
Archiwum


Godzilla: Miasto na krawędzi bitwy [aka Godzilla: City on the Edge of Battle] / Godzilla: Kessen Kidou Zoushoku Toshi [2018] [MULTi WEB DL 1080p H264 AC3] [Napisy PL]

Kategoria: Anime Pl
Wstawił:  Ishimura
Dodano: 23/07/2018
Rozmiar: 5.19 GB
Seedów: 12
Leecherów: 0
Komentarze: 0

Pobrałeś/aś podziękuj seedując . Daj szanse innym pobrać

INFO

Produkcja: Japonia
Gatunek: Sci-Fi, Akcja, Anime, Animacja
Premiera: 18 maja 2018 (świat)
Reżyseria: Hiroyuki Seshita, Kobun Shizuno
Scenariusz: Gen Urobuchi

OPIS

Na Ziemi Haruo i jego towarzysze kontaktują się z tubylczym plemieniem Houtua. Aby pokonać Godzillę, wyruszają do dawnego laboratorium Mechagodzilli.

OBSADA

Mamoru Miyano - Haruo Sakaki (głos)
&amp#65279Kana Hanazawa - Yuko Tani (głos)
Ari Ozawa - Miana (głos)
Reina Ueda - Maina (głos)
&amp#65279Junichi Suwabe - Mulu-Elu Galu-gu (głos)
Kenta Miyake - Rilu-Elu Belu-be (głos)
&amp#65279Takahiro Sakurai - Metphies (głos)
&amp#65279Tomokazu Sugita - Martin Lazzari (głos)
Yuuki Kaji - Adam Bindewald (głos)

DANE TECHNICZNE

General
GODZILLA City on the Edge of Battle [1080p] [Multi-Audio] [Multi-Subs] [73E7D3DC].mkv
Format : Matroska
Format version : Version 4 / Version 2
File size : 5.19 GiB
Duration : 1 h 40 min
Overall bit rate mode : Variable
Overall bit rate : 7 367 kb/s
Encoded date : UTC 2018-07-18 07:03:57
Writing application : mkvmerge v21.0.0 (Tardigrades Will Inherit The Earth) 32-bit
Writing library : libebml v1.3.5 + libmatroska v1.4.8

Video
ID : 1
Format : AVC
Format/INFO : Advanced Video Codec
Format profile : Main at L4
Format settings : CABAC / 3 Ref Frames
Format settings, CABAC : Yes
Format settings, ReFrames : 3 frames
Codec ID : V_MPEG4/ISO/AVC
Duration : 1 h 40 min
Bit rate mode : Variable
Bit rate : 3 160 kb/s
Maximum bit rate : 4 740 kb/s
Width : 1 920 pixels
Height : 1 080 pixels
Display aspect ratio : 16:9
Frame rate mode : Constant
Frame rate : 24.000 FPS
Color space : YUV
Chroma subsampling : 4:2:0
Bit depth : 8 bits
Scan type : Progressive
Bits/(PixelFrame) : 0.063
Stream size : 2.21 GiB (43)
Writing library : x264 core 148 r2715 7e75228
Encoding settings : cabac=1 / ref=3 / deblock=1:0:0 / analyse=0x1:0x111 / me=umh / subme=10 / psy=1 / psy_rd=1.00:0.00 / mixed_ref=1 / me_range=24 / chroma_me=1 / trellis=2 / 8x8dct=0 / cqm=0 / deadzone=21,11 / fast_pskip=1 / chroma_qp_offset=-2 / threads=8 / lookahead_threads=1 / sliced_threads=0 / nr=0 / decimate=1 / interlaced=0 / bluray_compat=0 / stitchable=1 / constrained_intra=0 / bframes=2 / b_pyramid=0 / b_adapt=2 / b_bias=0 / direct=3 / weightb=1 / open_gop=0 / weightp=2 / keyint=48 / keyint_min=25 / scenecut=0 / intra_refresh=0 / rc_lookahead=48 / rc=2pass / mbtree=1 / bitrate=3160 / ratetol=1.0 / qcomp=0.50 / qpmin=6 / qpmax=51 / qpstep=4 / cplxblur=20.0 / qblur=0.5 / vbv_maxrate=4740 / vbv_bufsize=6320 / nal_hrd=vbr / filler=0 / ip_ratio=1.40 / aq=1:1.00

Audio #1
ID : 2
Format : AC-3
Format/INFO : Audio Coding 3
Codec ID : A_AC3
Duration : 1 h 40 min
Bit rate mode : Constant
Bit rate : 384 kb/s
Channel(s) : 6 channels
Channel positions : Front: L C R, Side: L R, LFE
Sampling rate : 48.0 kHz
Frame rate : 31.250 FPS (1536 SPF)
Bit depth : 16 bits
Compression mode : Lossy
Stream size : 277 MiB (5)
Title : English
Language : English

Audio #2
ID : 3
Format : AC-3
Format/INFO : Audio Coding 3
Codec ID : A_AC3
Duration : 1 h 40 min
Bit rate mode : Constant
Bit rate : 384 kb/s
Channel(s) : 6 channels
Channel positions : Front: L C R, Side: L R, LFE
Sampling rate : 48.0 kHz
Frame rate : 31.250 FPS (1536 SPF)
Bit depth : 16 bits
Compression mode : Lossy
Stream size : 277 MiB (5)
Title : Castilian
Language : Spanish

Audio #3
ID : 4
Format : AC-3
Format/INFO : Audio Coding 3
Codec ID : A_AC3
Duration : 1 h 40 min
Bit rate mode : Constant
Bit rate : 384 kb/s
Channel(s) : 6 channels
Channel positions : Front: L C R, Side: L R, LFE
Sampling rate : 48.0 kHz
Frame rate : 31.250 FPS (1536 SPF)
Bit depth : 16 bits
Compression mode : Lossy
Stream size : 277 MiB (5)
Title : Spanish
Language : Spanish

Audio #4
ID : 5
Format : AC-3
Format/INFO : Audio Coding 3
Codec ID : A_AC3
Duration : 1 h 40 min
Bit rate mode : Constant
Bit rate : 384 kb/s
Channel(s) : 6 channels
Channel positions : Front: L C R, Side: L R, LFE
Sampling rate : 48.0 kHz
Frame rate : 31.250 FPS (1536 SPF)
Bit depth : 16 bits
Compression mode : Lossy
Stream size : 277 MiB (5)
Title : French
Language : French

Audio #5
ID : 6
Format : AC-3
Format/INFO : Audio Coding 3
Codec ID : A_AC3
Duration : 1 h 40 min
Bit rate mode : Constant
Bit rate : 384 kb/s
Channel(s) : 6 channels
Channel positions : Front: L C R, Side: L R, LFE
Sampling rate : 48.0 kHz
Frame rate : 31.250 FPS (1536 SPF)
Bit depth : 16 bits
Compression mode : Lossy
Stream size : 277 MiB (5)
Title : German
Language : German

Audio #6
ID : 7
Format : AC-3
Format/INFO : Audio Coding 3
Codec ID : A_AC3
Duration : 1 h 40 min
Bit rate mode : Constant
Bit rate : 384 kb/s
Channel(s) : 6 channels
Channel positions : Front: L C R, Side: L R, LFE
Sampling rate : 48.0 kHz
Frame rate : 31.250 FPS (1536 SPF)
Bit depth : 16 bits
Compression mode : Lossy
Stream size : 277 MiB (5)
Title : Italian
Language : Italian

Audio #7
ID : 8
Format : AC-3
Format/INFO : Audio Coding 3
Codec ID : A_AC3
Duration : 1 h 40 min
Bit rate mode : Constant
Bit rate : 384 kb/s
Channel(s) : 6 channels
Channel positions : Front: L C R, Side: L R, LFE
Sampling rate : 48.0 kHz
Frame rate : 31.250 FPS (1536 SPF)
Bit depth : 16 bits
Compression mode : Lossy
Stream size : 277 MiB (5)
Title : Brazilian Portuguese
Language : Portuguese

Audio #8
ID : 9
Format : AC-3
Format/INFO : Audio Coding 3
Codec ID : A_AC3
Duration : 1 h 40 min
Bit rate mode : Constant
Bit rate : 384 kb/s
Channel(s) : 6 channels
Channel positions : Front: L C R, Side: L R, LFE
Sampling rate : 48.0 kHz
Frame rate : 31.250 FPS (1536 SPF)
Bit depth : 16 bits
Compression mode : Lossy
Stream size : 277 MiB (5)
Title : Thai
Language : Thai
Audio #9
ID : 10
Format : AC-3
Format/INFO : Audio Coding 3
Codec ID : A_AC3
Duration : 1 h 40 min
Bit rate mode : Constant
Bit rate : 384 kb/s
Channel(s) : 6 channels
Channel positions : Front: L C R, Side: L R, LFE
Sampling rate : 48.0 kHz
Frame rate : 31.250 FPS (1536 SPF)
Bit depth : 16 bits
Compression mode : Lossy
Stream size : 277 MiB (5)
Title : Mandarin
Language : Chinese

Audio #10
ID : 11
Format : AC-3
Format/INFO : Audio Coding 3
Codec ID : A_AC3
Duration : 1 h 40 min
Bit rate mode : Constant
Bit rate : 384 kb/s
Channel(s) : 6 channels
Channel positions : Front: L C R, Side: L R, LFE
Sampling rate : 48.0 kHz
Frame rate : 31.250 FPS (1536 SPF)
Bit depth : 16 bits
Compression mode : Lossy
Stream size : 277 MiB (5)
Title : Japanese [oryginalny]
Language : Japanese

Audio #11
ID : 12
Format : AC-3
Format/INFO : Audio Coding 3
Codec ID : A_AC3
Duration : 1 h 40 min
Bit rate mode : Constant
Bit rate : 384 kb/s
Channel(s) : 6 channels
Channel positions : Front: L C R, Side: L R, LFE
Sampling rate : 48.0 kHz
Frame rate : 31.250 FPS (1536 SPF)
Bit depth : 16 bits
Compression mode : Lossy
Stream size : 277 MiB (5)
Title : Japanese (Audio Description)
Language : Japanese

Text #1 SRT
Title : English [Full]
Language : English

Text #2 SRT
Title : Castilian [Forced]
Language : Spanish

Text #3 SRT
Title : Castilian [Full]
Language : Spanish

Text #4 SRT
Title : Spanish [Forced]
Language : Spanish

Text #5 SRT
Title : Spanish [Full]
Language : Spanish

Text #6 SRT
Title : French [Forced]
Language : French

Text #7 SRT
Title : French [Full]
Language : French

Text #8 SRT
Title : German [Forced]
Language : German

Text #9 SRT
Title : German [Full]
Language : German

Text #10 SRT
Title : Italian [Forced]
Language : Italian

Text #11 SRT
Title : Italian [Full]
Language : Italian

Text #12 SRT
Title : Portuguese [Full]
Language : Portuguese

Text #13 SRT
Title : Brazilian Portuguese [Forced]
Language : Portuguese

Text #14 SRT
Title : Brazilian Portuguese [Full]
Language : Portuguese

Text #15 SRT
Title : Polish [Full]
Language : Polish

Text #16 SRT
Title : Turkish [Full]
Language : Turkish

Text #17 SRT
Title : Swedish [Full]
Language : Swedish

Text #18 SRT
Title : Danish [Full]
Language : Danish

Text #19 SRT
Title : Finnish [Full]
Language : Finnish

Text #20 SRT
Title : Dutch [Full]
Language : Dutch

Text #21 SRT
Title : Norwegian [Full]
Language : Norwegian

Text #22 SRT
Title : Greek [Full]
Language : Greek

Text #23 SRT
Title : Hebrew [Full]
Language : Hebrew

Text #24 SRT
Title : Arabic [Full]
Language : Arabic

Text #25 SRT
Title : Thai [Forced]
Language : Thai

Text #26 SRT
Title : Thai [Full]
Language : Thai

Text #27 SRT
Title : Korean [Full]
Language : Korean

Text #28 SRT
Title : Chinese (Simplified) [Full]
Language : Chinese

Text #29 SRT
Title : Chinese (Traditional) [Forced]
Language : Chinese

Text #30 SRT
Title : Chinese (Traditional) [Full]
Language : Chinese

Text #31 SRT
Title : Japanese [SDH]
Language : Japanese
Szczegóły torrenta
Hash
ebd652483c2188212574f2b9df8cac12029da924
Aktualizacja
16/03/2019 12:03:10 (Kliknij na [uaktualnij] by odświeżyc statystyki seedów i leecherów).
Zobacz również
Komentarze


Brak komentarzy...


Wstecz