Witamy Guest Strona Główna Regulamin Kontakt
User: Hasło:
Stwórz darmowe konto Odzyskiwanie hasła i loginu

Kategorie
 » Wszystkie torrenty
Filmy
 » DVD-R1987  
 » VCD/SVCD77  
 » BluRay/x2647287  
 » DivX/XviD LEKTOR/NAPISY PL78108  
 » RMVB5968  
 » DivX/XviD ENG/...19181  
 » HD905  
 » 3D320  
Seriale
 » Seriale Polskie5162  
 » Seriale Zagraniczne25803  
Dla Dzieci
 » Bajki Pl/Eng1191  
Anime
 » Anime Pl129  
 » Anime1277  
Muzyka
 » Muzyka Polska/Zagraniczna35167  
 » Soundtracki532  
 » Teledyski/Koncerty2260  
Gry
 » Gry PC15336  
 » Gry PS2/PS3/PSP1102  
 » Gry Xbox1166  
 » Gry - Inne Konsole491  
GSM/PDA
 » Tapety GSM/PDA111  
 » Programy GSM/PDA357  
 » Filmy GSM/PDA124  
 » Dzwonki GSM/PDA115  
 » Gry GSM/PDA230  
Książki/Czasopisma
 » E-Booki18620  
 » Audio-Booki4164  
 » Czasopisma948  
 » Komiksy704  
Programy
 » Windows11969  
 » Linux367  
 » Macintosh97  
Inne
 » Śmieszne93  
 » Tapety2518  
 » Sport1314  
 » Pozostałe290  
Erotyka
 » Czasopisma125  
 » Zdjęcia 6769  
 » Filmy131601  
 » Gry 70  
 » Hentai+1853  
Archiwum


Gdzie jest Dory 3D - Finding Dory *2016*[mini-HD.1080p.3D.Half.Over-Under.AC3.BluRay.x264-LEON 345] [Dubbing i napisy PL]

Kategoria: 3D
Wstawił:  Ishimura
Dodano: 06/05/2017
Rozmiar: 3.99 GB
Seedów: 0
Leecherów: 0
Komentarze: 0

Gdzie jest Dory 3D - Finding Dory *2016* 3D.Half.Over-Under.1080p.miniHD - Leon 345
================================================
Film w wersji 3D Over-Under.
Do odtworzenia filmu WYMAGANY odpowiedni sprzęt (TV 3D).
================================================

Kopia mini-HD 1080p = 3,99 GB

Kopie 3D SBS (OU) mini-HD, to kopie specjalistyczne o dużej rozdzielczości (1920 x 1080), które mimo niewielkiego ciężaru (w MB) zachowują wysoką jakość.

Szczególnie polecam tym, którzy chcą zaoszczędzić czas i przestrzeń na dysku.

Taką kopię można także bez problemu nagrać na zwykłą płytę DVD lub przenieś na zewnętrzną pamięć.

Ważne jest również to, że tą wersję mogą obejrzeć osoby, których sprzęt ma ograniczenia w postaci obsługi tylko formatu FAT, jak wiadomo taki format obsłuży filmy, które mają maksymalnie 4GB, więc w tym przypadku ta wersja jest też dla nich.
------------------------------------------------------------

Produkcja: USA
Gatunek: Animacja | Familijny | Komedia | Przygodowy
Czas trwania: 97 min.
Premiera: 17.06.2016 - Polska | 16.06.2016 - Świat
Reżyseria: Andrew Stanton
Scenariusz: Andrew Stanton

http://www.imdb.com/title/tt2277860/

W najnowszej animacji Disney/Pixar "Gdzie jest Dory" tytułowa bohaterka wraz z przyjaciółmi - Nemo i Marlinem - postanowi odkryć tajemnice swojej przeszłości. Co pamięta? Gdzie są jej rodzice? Gdzie nauczyła mówić się językiem wielorybów?

Obsada:

Ellen DeGeneres .... Dory (Joanna Trzepiecińskapolski dubbing)
Albert Brooks .... Marlin (Rafał Sisickipolski dubbing)
Ed O'Neill .... Hank (Andrzej Grabowskipolski dubbing)
Kaitlin Olson .... Nadzieja (Anna Cieślakpolski dubbing)
Hayden Rolence .... Nemo (Karol Kwiatkowski polski dubbing)
Ty Burrell .... Bailey (Rafał Cieszyński polski dubbing)
Diane Keaton .... Jenny (Ewa Błaszczyk polski dubbing)
Eugene Levy .... Charlie (Marek Barbasiewicz polski dubbing)
Sloane Murray .... Mała Dory (Antonina Gajko polski dubbing)

General

Format                         : Matroska
Format version                 : Version 2
File size                      : 3.99 GiB
Duration                       : 1h 37mn
Overall bit rate               : 5 887 Kbps
Movie name                     : FINDING_DORY_3D.HOU.1080p.miniHD.Leon345
Encoded date                   : UTC 2016-11-21 10:29:00
Writing application            : mkvmerge v5.7.0 ('The Whirlwind&#039 built on Jul  8 2012 20:08:51
Writing library                : libebml v1.2.3 + libmatroska v1.3.0

Video
ID                             : 1
Format                         : AVC
Format/Info                    : Advanced Video Codec
Format profile                 : High@L4.1
Format settings, CABAC         : Yes
Format settings, ReFrames      : 4 frames
Codec ID                       : V_MPEG4/ISO/AVC
Duration                       : 1h 37mn
Bit rate                       : 5 349 Kbps
Width                          : 1 920 pixels
Height                         : 1 080 pixels
Display aspect ratio           : 16:9(OAR 1.85:1)
Frame rate mode                : Constant
Frame rate                     : 23.976 (24000/1001) fps
Color space                    : YUV
Chroma subsampling             : 4:2:0
Bit depth                      : 8 bits
Scan type                      : Progressive
Bits/(Pixel*Frame)             : 0.108
Stream size                    : 3.61 GiB (90%)
Writing library                : x264
Encoding settings              : cabac=1 / ref=4 / deblock=1:-1:-1 / rc=2pass
Default                        : Yes
Forced                         : No

Audio #1
ID                             : 2
Format                         : AC-3
Format/Info                    : Audio Coding 3
Mode extension                 : CM (complete main)
Format settings, Endianness    : Big
Codec ID                       : A_AC3
Duration                       : 1h 37mn
Bit rate mode                  : Constant
Bit rate                       : 320 Kbps
Channel(s)                     : 6 channels
Channel positions              : Front: L C R, Side: L R, LFE
Sampling rate                  : 48.0 KHz
Frame rate                     : 31.250 fps (1536 spf)
Compression mode               : Lossy
Stream size                    : 222 MiB (5%)
Title                          : AC3 5.1 Dubbing PL
Language                       : Polish
Default                        : Yes
Forced                         : No

Audio #2
ID                             : 3
Format                         : AC-3
Format/Info                    : Audio Coding 3
Mode extension                 : CM (complete main)
Format settings, Endianness    : Big
Codec ID                       : A_AC3
Duration                       : 1h 37mn
Bit rate mode                  : Constant
Bit rate                       : 128 Kbps
Channel(s)                     : 2 channels
Channel positions              : Front: L R
Sampling rate                  : 48.0 KHz
Frame rate                     : 31.250 fps (1536 spf)
Compression mode               : Lossy
Stream size                    : 88.9 MiB (2%)
Title                          : AC3 2.0 ENG
Language                       : English
Default                        : No
Forced                         : No

Text #1
ID                             : 4
Format                         : UTF-8
Codec ID                       : S_TEXT/UTF8
Codec ID/Info                  : UTF-8 Plain Text
Title                          : napisy srt. PL
Language                       : Polish
Default                        : No
Forced                         : No

Text #2
ID                             : 5
Format                         : UTF-8
Codec ID                       : S_TEXT/UTF8
Codec ID/Info                  : UTF-8 Plain Text
Title                          : napisy srt.  ENG
Language                       : English
Default                        : No
Forced                         : No

Text #3
ID                             : 6
Format                         : PGS
Muxing mode                    : zlib
Codec ID                       : S_HDMV/PGS
Codec ID/Info                  : Picture based subtitle format used on BDs/HD-DVDs
Title                          : napisy 3D PL żółte
Language                       : Polish
Default                        : No
Forced                         : No

Text #4
ID                             : 7
Format                         : PGS
Muxing mode                    : zlib
Codec ID                       : S_HDMV/PGS
Codec ID/Info                  : Picture based subtitle format used on BDs/HD-DVDs
Title                          : napisy 3D  PL
Language                       : Polish
Default                        : No
Forced                         : No

Text #5
ID                             : 8
Format                         : PGS
Muxing mode                    : zlib
Codec ID                       : S_HDMV/PGS
Codec ID/Info                  : Picture based subtitle format used on BDs/HD-DVDs
Title                          : napisy 3D ENG
Language                       : English
Default                        : No
Forced                         : No

Source[thx]:

A/V- BD3D CEE - HD CLUB
Szczegóły torrenta
Hash
0aca0ce283d8a90bfe8a68c61d3ed8ea4398468b
Aktualizacja
23/05/2020 19:58:38 (Kliknij na [uaktualnij] by odświeżyc statystyki seedów i leecherów).
Zobacz również
Komentarze


Brak komentarzy...


Wstecz