Witamy Guest Strona Główna Regulamin Kontakt
User: Hasło:
Stwórz darmowe konto Odzyskiwanie hasła i loginu

Kategorie
 » Wszystkie torrenty
Filmy
 » DVD-R1990  
 » VCD/SVCD77  
 » BluRay/x2647391  
 » DivX/XviD LEKTOR/NAPISY PL78916  
 » RMVB5969  
 » DivX/XviD ENG/...19181  
 » HD912  
 » 3D320  
Seriale
 » Seriale Polskie5242  
 » Seriale Zagraniczne25949  
Dla Dzieci
 » Bajki Pl/Eng1217  
Anime
 » Anime Pl129  
 » Anime1277  
Muzyka
 » Muzyka Polska/Zagraniczna35533  
 » Soundtracki533  
 » Teledyski/Koncerty2260  
Gry
 » Gry PC15558  
 » Gry PS2/PS3/PSP1102  
 » Gry Xbox1166  
 » Gry - Inne Konsole492  
GSM/PDA
 » Tapety GSM/PDA111  
 » Programy GSM/PDA357  
 » Filmy GSM/PDA124  
 » Dzwonki GSM/PDA115  
 » Gry GSM/PDA230  
Książki/Czasopisma
 » E-Booki18734  
 » Audio-Booki4396  
 » Czasopisma950  
 » Komiksy704  
Programy
 » Windows11977  
 » Linux367  
 » Macintosh97  
Inne
 » Śmieszne93  
 » Tapety2518  
 » Sport1335  
 » Pozostałe290  
Erotyka
 » Czasopisma125  
 » Zdjęcia 6800  
 » Filmy133363  
 » Gry 70  
 » Hentai+1853  
Archiwum


Warcraft: Początek 3D - Warcraft *2016*[1080p.3D.Half.Over-Under.AC3 5.1.BluRay.x264-LEON 345] [Dubbing i napisy PL]

Kategoria: 3D
Wstawił:  Ishimura
Dodano: 06/05/2017
Rozmiar: 7.62 GB
Seedów: 0
Leecherów: 0
Komentarze: 0

Warcraft: Początek 3D - Warcraft *2016*3D.Half.Over-Under.1080p.BDRip.AC3 5.1 - Leon 345
================================================
Film w wersji 3D Over-Under.
Do odtworzenia filmu WYMAGANY odpowiedni sprzęt (TV 3D).
================================================
Dopasowane rozmiarem pod DVD9 ( do nagrania na płytke jeśli jeszcze ktoś to robi)
-------------------------------------------------------

gatunek: Fantasy,Przygodowy
produkcja: USA
premiera: 10 czerwca 2016 (Polska) 25 maja 2016 (świat)
reżyseria: Duncan Jones
scenariusz: Charles Leavitt,Duncan Jones

http://imdb.com/title/tt0803096/

Nadchodzi wojna! Wojna, jakiej nie widział świat. Żaden ze światów. Spokój Azeroth zostaje zaburzony miażdżącym atakiem Orków, którzy przeczuwają, że ich cywilizacja dobiega końca. Obie armie zetrą się w spektakularnej wojnie, jedna zostanie zniszczona, druga zgładzona. Ale wojna ma wiele twarzy, a walczyć musi każdy.
Film inspirowany kultową grą "Warcraft". Dwa zwaśnione królestwa - zamieszkiwane przez ludzi Azeroth (Przymierze) i świat orków Draenor (Horda) - w walce przeciw sobie. Przymierze walczy o zachowanie porządku i bezpieczeństwo ludzi, Horda zaś o przetrwanie zagrożonego gatunku orków. Wzorem gry, twórcy filmu nie opowiadają się po żadnej ze stron. To widz musi zdecydować, któremu królestwu kibicuje. Film nie odwołując się bezpośrednio do żadnej konkretnej części gry, obejmuje całość historii.

Obsada:

Travis Fimmel ... Anduin Lothar
Paula Patton ... Garona
Ben Foster ... Medivh
Dominic Cooper ... Llane Wrynn
Toby Kebbell ... Durotan / Antonidas
Ben Schnetzer ... Khadgar
Robert Kazinsky ... Orgrim

General

Format                         : Matroska
Format version                 : Version 4 / Version 2
File size                      : 7.62 GiB
Duration                       : 2h 3mn
Overall bit rate               : 8 859 Kbps
Movie name                     : WARCRAFT(2016)3D.HOU.1080p.BDRip.AC3 5.1.Leon345
Encoded date                   : UTC 2016-09-26 18:18:02
Writing application            : mkvmerge v8.3.0 ('Over the Horizon&#039 64bit
Writing library                : libebml v1.3.1 + libmatroska v1.4.2
Attachments                    : Warcraft.3D.jpg

Video
ID                             : 1
Format                         : AVC
Format/Info                    : Advanced Video Codec
Format profile                 : High@L4.1
Format settings, CABAC         : Yes
Format settings, ReFrames      : 4 frames
Codec ID                       : V_MPEG4/ISO/AVC
Duration                       : 2h 3mn
Bit rate                       : 7 549 Kbps
Width                          : 1 920 pixels
Height                         : 1 080 pixels
Display aspect ratio           : 16:9 (OAR 2.39:1)
Frame rate mode                : Constant
Frame rate                     : 23.976 (24000/1001) fps
Color space                    : YUV
Chroma subsampling             : 4:2:0
Bit depth                      : 8 bits
Scan type                      : Progressive
Bits/(Pixel*Frame)             : 0.152
Stream size                    : 6.37 GiB (84%)
Writing library                : x264
Encoding settings              : cabac=1 / ref=4 / deblock=1:-1:-1 / rc=2pass
Default                        : Yes
Forced                         : No

Audio #1
ID                             : 2
Format                         : AC-3
Format/Info                    : Audio Coding 3
Mode extension                 : CM (complete main)
Format settings, Endianness    : Big
Codec ID                       : A_AC3
Duration                       : 2h 3mn
Bit rate mode                  : Constant
Bit rate                       : 640 Kbps
Channel(s)                     : 6 channels
Channel positions              : Front: L C R, Side: L R, LFE
Sampling rate                  : 48.0 KHz
Compression mode               : Lossy
Stream size                    : 564 MiB (7%)
Title                          : AC3 5.1 Dubbing PL
Language                       : Polish
Default                        : Yes
Forced                         : No

Audio #2
ID                             : 3
Format                         : AC-3
Format/Info                    : Audio Coding 3
Mode extension                 : CM (complete main)
Format settings, Endianness    : Big
Codec ID                       : A_AC3
Duration                       : 2h 3mn
Bit rate mode                  : Constant
Bit rate                       : 640 Kbps
Channel(s)                     : 6 channels
Channel positions              : Front: L C R, Side: L R, LFE
Sampling rate                  : 48.0 KHz
Compression mode               : Lossy
Stream size                    : 564 MiB (7%)
Title                          : AC3 5.1 ENG
Language                       : English
Default                        : No
Forced                         : No

Text #1
ID                             : 4
Format                         : UTF-8
Codec ID                       : S_TEXT/UTF8
Codec ID/Info                  : UTF-8 Plain Text
Title                          : napisy srt.PL
Language                       : Polish
Default                        : No
Forced                         : No

Text #2
ID                             : 5
Format                         : UTF-8
Codec ID                       : S_TEXT/UTF8
Codec ID/Info                  : UTF-8 Plain Text
Title                          : napisy srt.ENG
Language                       : English
Default                        : No
Forced                         : No

Text #3
ID                             : 6
Format                         : PGS
Muxing mode                    : zlib
Codec ID                       : S_HDMV/PGS
Codec ID/Info                  : Picture based subtitle format used on BDs/HD-DVDs
Title                          : napisy 3D PL
Language                       : Polish
Default                        : No
Forced                         : No

Text #4
ID                             : 7
Format                         : PGS
Muxing mode                    : zlib
Codec ID                       : S_HDMV/PGS
Codec ID/Info                  : Picture based subtitle format used on BDs/HD-DVDs
Title                          : napisy 3D ENG
Language                       : English
Default                        : No
Forced                         : No

A/V-Warcraft *2016* 1080p[2D/3D]BDRemux.TrueHD 7.1.Atmos-Leon 345
Szczegóły torrenta
Hash
ea526a80172b28b7015e656a0dda55bc696f5142
Aktualizacja
08/05/2020 22:32:36 (Kliknij na [uaktualnij] by odświeżyc statystyki seedów i leecherów).
Zobacz również
Komentarze


Brak komentarzy...


Wstecz