Witamy Guest Strona Główna Regulamin Kontakt
User: Hasło:
Stwórz darmowe konto Odzyskiwanie hasła i loginu

Kategorie
 » Wszystkie torrenty
Filmy
 » DVD-R1990  
 » VCD/SVCD77  
 » BluRay/x2647391  
 » DivX/XviD LEKTOR/NAPISY PL78916  
 » RMVB5969  
 » DivX/XviD ENG/...19181  
 » HD912  
 » 3D320  
Seriale
 » Seriale Polskie5242  
 » Seriale Zagraniczne25949  
Dla Dzieci
 » Bajki Pl/Eng1217  
Anime
 » Anime Pl129  
 » Anime1277  
Muzyka
 » Muzyka Polska/Zagraniczna35533  
 » Soundtracki533  
 » Teledyski/Koncerty2260  
Gry
 » Gry PC15558  
 » Gry PS2/PS3/PSP1102  
 » Gry Xbox1166  
 » Gry - Inne Konsole492  
GSM/PDA
 » Tapety GSM/PDA111  
 » Programy GSM/PDA357  
 » Filmy GSM/PDA124  
 » Dzwonki GSM/PDA115  
 » Gry GSM/PDA230  
Książki/Czasopisma
 » E-Booki18734  
 » Audio-Booki4396  
 » Czasopisma950  
 » Komiksy704  
Programy
 » Windows11977  
 » Linux367  
 » Macintosh97  
Inne
 » Śmieszne93  
 » Tapety2518  
 » Sport1335  
 » Pozostałe290  
Erotyka
 » Czasopisma125  
 » Zdjęcia 6800  
 » Filmy133363  
 » Gry 70  
 » Hentai+1853  
Archiwum


Rodencja i ząbek księżniczki 3D Rodencia y el Diente de la Princesa *2012* [mini HD 1080p 3D Half Over Under AC3 BluRay x264 SONDA] [Lektor PL] [AT TEAM]

Kategoria: 3D
Wstawił:  Sonda
Dodano: 01/05/2016
Rozmiar: 3.92 GB
Seedów: 0
Leecherów: 0
Komentarze: 0

http://i.imgur.com/UQYQ0Ad.jpg

Film w wersji 3D Over-Under.
Do odtworzenia filmu WYMAGANY odpowiedni sprzęt (TV 3D)
=========================================

Kopia mini-HD 1080p = 3,91 GB

gatunek: Animacja,Przygodowy
produkcja: Argentyna,Peru
premiera: 11 października 2012 (świat)
reżyseria: David Bisbano
scenariusz: David Bisbano,Raquel Faraoni

http://www.imdb.com/title/tt2439190/

Obsada:

Hernán Bravo ... Edam
Natalia Rosminati ... Brie
Ricardo Alanis ... Roquefort
Enrique Porcellana ... Gruyere
Sergio Bermejo ... Rotex-Texor
Oswaldo Salas ... Blue / General Rat / Edam grandfather
Gonzalo Urtizberéa ... Muzzarella
Marcelo Chirinos ... Provolone

Opis:

Rodencja to położone wśród lasów fantastyczne królestwo, zamieszkane przez myszy. Pewnego dnia ta piękna i spokojna dotąd kraina zostaje zaatakowana przez złego Rotexa i jego armię szczurów. Przerażone myszy próbują stawić im opór. Nieoczekiwanie najdzielniejszym obrońcą Rodencji okazuje się niezdarna myszka o imieniu Edam - przyszły magik, zakochany w pięknej Brie. Przeznaczona dla dzieci, pełna uroku animacja z wartką akcją i barwnymi bohaterami. Film opowiada o szczurzej inwazji na zamieszkałe przez myszy królestwo Rodencji.

Storyline:

A magical adventure begins Once upon a time, within a vast and wild forest there was a fantastic Kingdom called Rodencia, a place where wonderful creatures and powerful wizards lived. It's the story of adventures and love of a small mouse called Edam, a clumsy magician's apprentice and the beautiful and confident mouse Brie, who will have to face many dangerous obstacles in order to obtain the power of the princess's tooth and defeat the troop of rats commanded by the evil Rotex who invades Rodencia (the peaceful kingdom of mice), in order to dominate them and take their treasure. In the middle of the forest; the magic of the light and the darkness, the love and resentment will face together. Edam and Rotex will fight and only one will leave victorious.

Screenshot:

http://i.imgur.com/faH9gcc.jpg
http://i.imgur.com/1Pgc2ni.jpg
http://i.imgur.com/67Zg0dT.jpg
http://i.imgur.com/Whb7qwO.jpg


Dane techniczne:

General
Format                                   : Matroska
Format version                           : Version 2
File size                                : 3.92 GiB
Duration                                 : 1h 27mn
Overall bit rate                         : 6 392 Kbps
Movie name                               : Rodencia.y.el.Diente.de.la.Princesa.2012.PL.3D.HOU.1080p.BDRip.Sonda [*censored*]
Encoded date                             : UTC 2016-04-30 16:45:13
Writing application                      : mkvmerge v5.7.0 ('The Whirlwind&#039 built on Jul  8 2012 20:08:51
Writing library                          : libebml v1.2.3 + libmatroska v1.3.0

Video
ID                                       : 1
Format                                   : AVC
Format/Info                              : Advanced Video Codec
Format profile                           : High@L4.1
Format settings, CABAC                   : Yes
Format settings, ReFrames                : 4 frames
Codec ID                                 : V_MPEG4/ISO/AVC
Duration                                 : 1h 27mn
Bit rate                                 : 6 200 Kbps
Width                                    : 1 920 pixels
Height                                   : 1 080 pixels
Display aspect ratio                     : 16:9 (2.39:1)
Frame rate mode                          : Constant
Frame rate                               : 23.976 fps
Color space                              : YUV
Chroma subsampling                       : 4:2:0
Bit depth                                : 8 bits
Scan type                                : Progressive
Bits/(Pixel*Frame)                       : 0.125
Stream size                              : 3.72 GiB (95%)
Title                                    : Rip by Sonda
Writing library                          : x264
Encoding settings                        : cabac=1 / ref=4 / deblock=1:-1:-1 / rc=2pass
Default                                  : Yes
Forced                                   : No

Audio
ID                                       : 2
Format                                   : AC-3
Format/Info                              : Audio Coding 3
Mode extension                           : CM (complete main)
Format settings, Endianness              : Big
Codec ID                                 : A_AC3
Duration                                 : 1h 27mn
Bit rate mode                            : Constant
Bit rate                                 : 192 Kbps
Channel count                            : 2 channels
Channel positions                        : Front: L R
Sampling rate                            : 48.0 KHz
Bit depth                                : 16 bits
Compression mode                         : Lossy
Stream size                              : 120 MiB (3%)
Title                                    : AC3 2.0 Lektor PL
Language                                 : Polish
Default                                  : Yes
Forced                                   : No

Source:
V-BD3D
Lektor PL - VOD
Thanks - Sonda
Szczegóły torrenta
Hash
ef49ade4bcb75959959418bcec6e03b033b25932
Aktualizacja
03/12/2017 12:38:24 (Kliknij na [uaktualnij] by odświeżyc statystyki seedów i leecherów).
Zobacz również
Komentarze


Brak komentarzy...


Wstecz