Witamy Guest Strona Główna Regulamin Kontakt
User: Hasło:
Stwórz darmowe konto Odzyskiwanie hasła i loginu

Kategorie
 » Wszystkie torrenty
Filmy
 » DVD-R1972  
 » VCD/SVCD77  
 » BluRay/x2646634  
 » DivX/XviD LEKTOR/NAPISY PL70238  
 » DivX/XviD ENG/...19155  
 » RMVB5963  
 » HD865  
 » 3D317  
Seriale
 » Seriale Polskie4358  
 » Seriale Zagraniczne23807  
Dla Dzieci
 » Bajki Pl/Eng1145  
Anime
 » Anime Pl129  
 » Anime1272  
Muzyka
 » Muzyka Polska/Zagraniczna31251  
 » Soundtracki513  
 » Teledyski/Koncerty2152  
Gry
 » Gry PC13659  
 » Gry PS2/PS3/PSP1097  
 » Gry Xbox1165  
 » Gry - Inne Konsole409  
GSM/PDA
 » Tapety GSM/PDA110  
 » Programy GSM/PDA346  
 » Filmy GSM/PDA124  
 » Dzwonki GSM/PDA114  
 » Gry GSM/PDA229  
Książki/Czasopisma
 » E-Booki12534  
 » Audio-Booki3491  
 » Czasopisma927  
 » Komiksy703  
Programy
 » Windows11578  
 » Linux366  
 » Macintosh94  
Inne
 » Tapety2452  
 » Śmieszne75  
 » Sport1216  
 » Pozostałe286  
Erotyka
 » Czasopisma121  
 » Zdjęcia 6484  
 » Filmy111097  
 » Gry 66  
 » Hentai+1853  
Archiwum


Piła IV Saw IV *2007* (Director's Cut) [60FPS 1080p DTS HD MA 7 1 AC3 BluRay x264 SONDA] [Lektor i Napisy PL] [ENG]

Kategoria: HD
Wstawił:  Bezzol
Dodano: 28/02/2016
Rozmiar: 24.42 GB
Seedów: 0
Leecherów: 0
Komentarze: 0

Piła IV - Saw IV *2007* (Director's Cut) 60FPS.1080p.BDRip-Sonda
===============================================

http://i.imgur.com/RAcKSWz.jpg

gatunek: Horror
produkcja: Kanada,USA
premiera: 18 stycznia 2008 (Polska) 25 października 2007 (świat)
reżyseria: Darren Lynn Bousman
scenariusz: Patrick Melton,Marcus Dunstan

http://www.imdb.com/title/tt0890870/

Obsada:

Tobin Bell ... Jigsaw / John Kramer
Costas Mandylor ... Porucznik Mark Hoffman
Scott Patterson ... Agent Peter Strahm
Betsy Russell ... Jill Tuck
Lyriq Bent ... Porucznik Daniel Rigg
Athena Karkanis ... Agentka Lindsey Perez
Louis Ferreira ... Art Blank
Simon Reynolds ... Lamanna

Opis:

Kontynuacja wydarzeń z poprzedniej, trzeciej części. Jigsaw, Amanda i doktor Lynn umierają. Jedynie przy życiu zostaje Jeff, wplątany w nową grę zabójcy. Może on uciec z budynku, bądź uratować swoją córkę, która jest gdzieś uwięziona. Postanawia uratować córkę. Zostaje wplątany w kolejną grę przygotowaną przez Jigsawa. Odkrywa, że wszystko to było już od dawna zaplanowane. Kolejna część historii maniakalnego zabójcy, torturujący ludzi w bardzo wyrafinowany sposób.

Storyline:

Jigsaw and his apprentice Amanda are dead. Now, upon the news of Detective Kerry's murder, two seasoned FBI profilers, Agent Strahm and Agent Perez, arrive in the terrified community to assist the veteran Detective Hoffman in sifting through Jigsaw's latest grisly remains and piecing together the puzzle. However, when SWAT Commander Rigg is abducted and thrust into a game, the last officer untouched by Jigsaw has but ninety minutes to overcome a series of demented traps and save an old friend or face the deadly consequences.

Screenshot:

http://i.imgur.com/AD5nLPU.jpg
http://i.imgur.com/QRfxBRW.jpg
http://i.imgur.com/jECbgY5.jpg
http://i.imgur.com/nxPu74t.jpg


Dane techniczne:

General
Format : Matroska
Format version : Version 2
File size : 24.4 GiB
Duration : 1h 35mn
Overall bit rate mode : Variable
Overall bit rate : 36.6 Mbps
Movie name : Saw.IV.2007.PL.1080p.BDRip.60FPS Rip by Sonda [*censored*]
Encoded date : UTC 2016-02-26 12:14:25
Writing application : mkvmerge v5.7.0 ('The Whirlwind&#039 built on Jul 8 2012 20:08:51
Writing library : libebml v1.2.3 + libmatroska v1.3.0

Video
ID : 1
Format : AVC
Format/Info : Advanced Video Codec
Format profile : High@L4.1
Format settings, CABAC : Yes
Format settings, ReFrames : 4 frames
Codec ID : V_MPEG4/ISO/AVC
Duration : 1h 35mn
Nominal bit rate : 30.0 Mbps
Width : 1 920 pixels
Height : 1 080 pixels
Display aspect ratio : 16:9 (1.78:1)
Frame rate mode : Constant
Frame rate : 60.000 fps
Original frame rate : 59.940 fps
Color space : YUV
Chroma subsampling : 4:2:0
Bit depth : 8 bits
Scan type : Progressive
Bits/(Pixel*Frame) : 0.241
Title : 60FPS Rip by Sonda
Writing library : x264 core
Encoding settings : cabac=1 / ref=4 / deblock=1:-1:-1 / rc=2pass
Default : Yes
Forced : No
Color primaries : BT.709
Transfer characteristics : BT.709
Matrix coefficients : BT.709

Audio #1
ID : 2
Format : AC-3
Format/Info : Audio Coding 3
Mode extension : CM (complete main)
Format settings, Endianness : Big
Codec ID : A_AC3
Duration : 1h 35mn
Bit rate mode : Constant
Bit rate : 448 Kbps
Channel count : 6 channels
Channel positions : Front: L C R, Side: L R, LFE
Sampling rate : 48.0 KHz
Bit depth : 16 bits
Compression mode : Lossy
Stream size : 306 MiB (1%)
Title : AC3 5.1 Lektor PL
Language : Polish
Default : Yes
Forced : Yes

Audio #2
ID : 3
Format : AC-3
Format/Info : Audio Coding 3
Mode extension : CM (complete main)
Format settings, Endianness : Big
Codec ID : A_AC3
Duration : 1h 35mn
Bit rate mode : Constant
Bit rate : 640 Kbps
Channel count : 6 channels
Channel positions : Front: L C R, Side: L R, LFE
Sampling rate : 48.0 KHz
Bit depth : 16 bits
Compression mode : Lossy
Stream size : 437 MiB (2%)
Title : AC3 5.1
Language : English
Default : No
Forced : No

Audio #3
ID : 4
Format : DTS
Format/Info : Digital Theater Systems
Format profile : MA / Core
Mode : 16
Format settings, Endianness : Big
Codec ID : A_DTS
Duration : 1h 35mn
Bit rate mode : Variable
Bit rate : 5566 / 1 509 Kbps
Channel count : 8 channels / 6 channels
Channel positions : Front: L C R, Side: L R, Back: L R, LFE / Front: L C R, Side: L R, LFE
Sampling rate : 48.0 KHz
Bit depth : 24 bits
Compression mode : Lossless / Lossy
Title : DTS-HD MA 7.1
Language : English
Default : No
Forced : No

Text #1
ID : 5
Format : UTF-8
Codec ID : S_TEXT/UTF8
Codec ID/Info : UTF-8 Plain Text
Language : Polish
Default : No
Forced : No

Text #2
ID : 6
Format : PGS
Muxing mode : zlib
Codec ID : S_HDMV/PGS
Codec ID/Info : The same subtitle format used on BDs/HD-DVDs
Language : English
Default : No
Forced : No

Source:
A/V-Saw IV [Director's Cut] (2007) Blu-ray [Custom] 1080p AVC DTS-HD 5.1
Lektor PL - DVD
Thanks - Sonda
Szczegóły torrenta
Hash
71d6cf8723beb9b8d6f6af28b5b155d6668d4739
Aktualizacja
22/05/2020 17:40:47 (Kliknij na [uaktualnij] by odświeżyc statystyki seedów i leecherów).
Zobacz również
Komentarze




Bxs21/05/2020 00.08.50
proszę o seed


Wstecz