Witamy Guest Strona Główna Regulamin Kontakt
User: Hasło:
Stwórz darmowe konto Odzyskiwanie hasła i loginu

Kategorie
 » Wszystkie torrenty
Filmy
 » DVD-R1972  
 » VCD/SVCD77  
 » BluRay/x2646634  
 » DivX/XviD LEKTOR/NAPISY PL70238  
 » DivX/XviD ENG/...19155  
 » RMVB5963  
 » HD865  
 » 3D317  
Seriale
 » Seriale Polskie4358  
 » Seriale Zagraniczne23807  
Dla Dzieci
 » Bajki Pl/Eng1145  
Anime
 » Anime Pl129  
 » Anime1272  
Muzyka
 » Muzyka Polska/Zagraniczna31251  
 » Soundtracki513  
 » Teledyski/Koncerty2152  
Gry
 » Gry PC13659  
 » Gry PS2/PS3/PSP1097  
 » Gry Xbox1165  
 » Gry - Inne Konsole409  
GSM/PDA
 » Tapety GSM/PDA110  
 » Programy GSM/PDA346  
 » Filmy GSM/PDA124  
 » Dzwonki GSM/PDA114  
 » Gry GSM/PDA229  
Książki/Czasopisma
 » E-Booki12534  
 » Audio-Booki3491  
 » Czasopisma927  
 » Komiksy703  
Programy
 » Windows11578  
 » Linux366  
 » Macintosh94  
Inne
 » Tapety2452  
 » Śmieszne75  
 » Sport1216  
 » Pozostałe286  
Erotyka
 » Czasopisma121  
 » Zdjęcia 6484  
 » Filmy111097  
 » Gry 66  
 » Hentai+1853  
Archiwum


Piła V Saw V *2008* (Director's Cut) [60FPS 1080p DTS HD MA 7 1 AC3 BluRay x264 SONDA] [Lektor i Napisy PL] [ENG]

Kategoria: HD
Wstawił:  Bezzol
Dodano: 28/02/2016
Rozmiar: 24.12 GB
Seedów: 0
Leecherów: 0
Komentarze: 0

Piła V - Saw V *2008* (Director's Cut) 60FPS.1080p.BDRip-Sonda
===============================================

http://i.imgur.com/6y6LUiz.jpg

gatunek: Horror
produkcja: Kanad,aUSA
premiera: 24 października 2008 (Polska) 23 października 2008 (świat)
reżyseria: David Hackl
scenariusz: Patrick Melton,Marcus Dunstan

http://www.imdb.com/title/tt1132626/

Obsada:

Tobin Bell ... Jigsaw / John
Costas Mandylor ... Mark Hoffman
Scott Patterson ... Agent Strahm
Betsy Russell ... Jill
Julie Benz ... Brit
Meagan Good ... Luba
Mark Rolston ... Dan Erickson
Carlo Rota ... Charles

Opis:

Kolejna, piąta już, odsłona słynnej serii ukazującej ludzkie cierpienie niekoniecznie niewinnych ludzi... Tym razem to Mark Hoffman (Costas Mandylor), detektyw FBI, który sam przeżył morderczą grę, zamierza kontynuować działania Jigsawa (Tobin Bell). Kolejni ludzie, kolejne gry, lecz zawsze ten sam wybór: żyć lub umrzeć... Czy jest ktoś w stanie to wszystko zatrzymać? Ile cierpienia jest w stanie znieść ludzkie ciało? Jak daleko posunie się człowiek, aby ocalić swoje życie? Niech rozpocznie się gra...

Storyline:

Jigsaw and his young apprentice, Amanda, are dead. But the grisly games continue. 5 supposed strangers find themselves in the midst of the big game, and believe they are in a survival of the fittest competition. Via his now infamous video linked doll, Jigsaw conveys the message that they should ignore their instincts, and ignore his advice at their peril. Meanwhile, agent Strahm wants to prove that Hoffman is an apprentice to Jigsaw, and pursues him as he continues his twisted games. What Strahm does not realize is that Hoffman is testing him all along, and must pass his test in order to stay alive.

Screenshot:

http://i.imgur.com/kAd5SJl.jpg
http://i.imgur.com/qymmwYD.jpg
http://i.imgur.com/SqLH3sJ.jpg
http://i.imgur.com/2egYFPp.jpg


Dane techniczne:

General
Format : Matroska
Format version : Version 2
File size : 24.1 GiB
Duration : 1h 35mn
Overall bit rate mode : Variable
Overall bit rate : 36.3 Mbps
Movie name : Saw.V.2008.PL.1080p.BDRip.60FPS Rip by Sonda [*censored*]
Encoded date : UTC 2016-02-27 09:15:01
Writing application : mkvmerge v5.7.0 ('The Whirlwind&#039 built on Jul 8 2012 20:08:51
Writing library : libebml v1.2.3 + libmatroska v1.3.0

Video
ID : 1
Format : AVC
Format/Info : Advanced Video Codec
Format profile : High@L4.1
Format settings, CABAC : Yes
Format settings, ReFrames : 4 frames
Codec ID : V_MPEG4/ISO/AVC
Duration : 1h 35mn
Nominal bit rate : 30.0 Mbps
Width : 1 920 pixels
Height : 1 080 pixels
Display aspect ratio : 16:9 (1.78:1)
Frame rate mode : Constant
Frame rate : 60.000 fps
Original frame rate : 59.940 fps
Color space : YUV
Chroma subsampling : 4:2:0
Bit depth : 8 bits
Scan type : Progressive
Bits/(Pixel*Frame) : 0.241
Title : 60FPS Rip by Sonda
Writing library : x264 core
Encoding settings : cabac=1 / ref=4 / deblock=1:-1:-1 / rc=2pass
Default : Yes
Forced : No
Color primaries : BT.709
Transfer characteristics : BT.709
Matrix coefficients : BT.709

Audio #1
ID : 2
Format : AC-3
Format/Info : Audio Coding 3
Mode extension : CM (complete main)
Format settings, Endianness : Big
Codec ID : A_AC3
Duration : 1h 35mn
Bit rate mode : Constant
Bit rate : 640 Kbps
Channel count : 6 channels
Channel positions : Front: L C R, Side: L R, LFE
Sampling rate : 48.0 KHz
Bit depth : 16 bits
Compression mode : Lossy
Stream size : 435 MiB (2%)
Title : AC3 5.1 Lektor PL
Language : Polish
Default : Yes
Forced : Yes

Audio #2
ID : 3
Format : AC-3
Format/Info : Audio Coding 3
Mode extension : CM (complete main)
Format settings, Endianness : Big
Codec ID : A_AC3
Duration : 1h 35mn
Bit rate mode : Constant
Bit rate : 640 Kbps
Channel count : 6 channels
Channel positions : Front: L C R, Side: L R, LFE
Sampling rate : 48.0 KHz
Bit depth : 16 bits
Compression mode : Lossy
Stream size : 435 MiB (2%)
Title : AC3 5.1
Language : English
Default : No
Forced : No

Audio #3
ID : 4
Format : DTS
Format/Info : Digital Theater Systems
Format profile : MA / Core
Mode : 16
Format settings, Endianness : Big
Codec ID : A_DTS
Duration : 1h 35mn
Bit rate mode : Variable
Bit rate : 5050 / 1 509 Kbps
Channel count : 8 channels / 6 channels
Channel positions : Front: L C R, Side: L R, Back: L R, LFE / Front: L C R, Side: L R, LFE
Sampling rate : 48.0 KHz
Bit depth : 24 bits
Compression mode : Lossless / Lossy
Title : DTS-HD MA 7.1
Language : English
Default : No
Forced : No

Text #1
ID : 5
Format : UTF-8
Codec ID : S_TEXT/UTF8
Codec ID/Info : UTF-8 Plain Text
Language : Polish
Default : No
Forced : No

Text #2
ID : 6
Format : PGS
Muxing mode : zlib
Codec ID : S_HDMV/PGS
Codec ID/Info : The same subtitle format used on BDs/HD-DVDs
Language : English
Default : No
Forced : No

Source:
A/V-Saw V [Director's Cut] (200 Blu-ray [Custom] 1080p AVC DTS-HD 7.1
Lektor PL - DVD
Thanks - Sonda
Szczegóły torrenta
Hash
2919f7c95094c88b0953fd28d4021c1de8a9bd8c
Aktualizacja
20/05/2020 23:06:33 (Kliknij na [uaktualnij] by odświeżyc statystyki seedów i leecherów).
Zobacz również
Komentarze




Bxs21/05/2020 00.08.33
proszę o seed


Wstecz