Witamy Guest Strona Główna Regulamin Kontakt
User: Hasło:
Stwórz darmowe konto Odzyskiwanie hasła i loginu

Kategorie
 » Wszystkie torrenty
Filmy
 » DVD-R1987  
 » VCD/SVCD77  
 » BluRay/x2647287  
 » DivX/XviD LEKTOR/NAPISY PL78108  
 » RMVB5968  
 » DivX/XviD ENG/...19181  
 » HD905  
 » 3D320  
Seriale
 » Seriale Polskie5162  
 » Seriale Zagraniczne25803  
Dla Dzieci
 » Bajki Pl/Eng1191  
Anime
 » Anime Pl129  
 » Anime1277  
Muzyka
 » Muzyka Polska/Zagraniczna35167  
 » Soundtracki532  
 » Teledyski/Koncerty2260  
Gry
 » Gry PC15336  
 » Gry PS2/PS3/PSP1102  
 » Gry Xbox1166  
 » Gry - Inne Konsole491  
GSM/PDA
 » Tapety GSM/PDA111  
 » Programy GSM/PDA357  
 » Filmy GSM/PDA124  
 » Dzwonki GSM/PDA115  
 » Gry GSM/PDA230  
Książki/Czasopisma
 » E-Booki18620  
 » Audio-Booki4164  
 » Czasopisma948  
 » Komiksy704  
Programy
 » Windows11969  
 » Linux367  
 » Macintosh97  
Inne
 » Śmieszne93  
 » Tapety2518  
 » Sport1314  
 » Pozostałe290  
Erotyka
 » Czasopisma125  
 » Zdjęcia 6769  
 » Filmy131601  
 » Gry 70  
 » Hentai+1853  
Archiwum


Boogie Boogie el aceitoso 3D (2009) [BRRip 1080p by alE13 H/OU AC3][Lektor i Napisy PL/Eng][Spa]

Kategoria: 3D
Wstawił:  Bezzol
Dodano: 20/12/2015
Rozmiar: 7.68 GB
Seedów: 0
Leecherów: 3
Komentarze: 0

reżyseria: Gustavo Cova
scenariusz: Marcelo Paez-Cubells
gatunek: Animacja, Akcja, Czarna komedia, Gangsterski
produkcja: Argentyna, Meksyk
premiera: 22-10-2009
muzyka: Diego Monk
czas: 01:25:39

opis:

Boogie is a violent and ruthless hit man who follows his own rules. Women love him, criminals fear him.

Animacja na podstawie komiksu autorstwa wielkiego Roberto Fontanarossy. Płatny zabójca Boogie - rasista, seksista i brutal nie jest już najlepszy w mieście. Pojawił się Nowy - młody, wysportowany i przystojny niczym chirurg.

http://i.imgur.com/LkA66ob.jpg
http://i.imgur.com/mjPYuk8.jpg
http://i.imgur.com/OhGCKdg.jpg
http://i.imgur.com/D1GKLDo.jpg

obsada:

Pablo Echarri, Nancy Dupláa, Nicolás Frías

dane techniczne:

Boogie, el aceitoso 3D (2009)-*censored*.mkv
Format : Matroska
Format version : Version 4 / Version 2
File size : 7.59 GiB
Duration : 1h 25mn
Overall bit rate : 12.7 Mbps
Movie name : Boogie, el aceitoso 3D (2009)-*censored*
Encoded date : UTC 2015-12-18 10:07:48
Writing application : mkvmerge v8.1.0 ('Psychedelic Postcard&#039 64bit
Writing library : libebml v1.3.1 + libmatroska v1.4.2
DURATION : 01:21:39.302000000
NUMBER_OF_FRAMES : 891
NUMBER_OF_BYTES : 4509677
_STATISTICS_WRITING_APP : mkvmerge v8.1.0 ('Psychedelic Postcard&#039 64bit
_STATISTICS_WRITING_DATE_UT : 2015-12-18 10:07:48
_STATISTICS_TAGS : BPS DURATION NUMBER_OF_FRAMES NUMBER_OF_BYTES

Video
ID : 1
Format : AVC
Format/Info : Advanced Video Codec
Format profile : High@L4
Format settings, CABAC : Yes
Format settings, ReFrames : 2 frames
Format settings, GOP : M=1, N=12
Codec ID : V_MPEG4/ISO/AVC
Duration : 1h 25mn
Bit rate mode : Constant
Bit rate : 11.8 Mbps
Width : 1 920 pixels
Height : 1 080 pixels
Display aspect ratio : 16:9
Frame rate mode : Constant
Frame rate : 23.976 fps
Color space : YUV
Chroma subsampling : 4:2:0
Bit depth : 8 bits
Scan type : Progressive
Bits/(Pixel*Frame) : 0.237
Stream size : 6.90 GiB (91%)
Title : Rip by SeRoGa00
Language : English
Default : Yes
Forced : No
DURATION : 01:25:39.051000000
NUMBER_OF_FRAMES : 123214
NUMBER_OF_BYTES : 7566315438
_STATISTICS_WRITING_APP : mkvmerge v8.1.0 ('Psychedelic Postcard&#039 64bit
_STATISTICS_WRITING_DATE_UT : 2015-12-18 10:07:48
_STATISTICS_TAGS : BPS DURATION NUMBER_OF_FRAMES NUMBER_OF_BYTES

Audio #1
ID : 2
Format : AC-3
Format/Info : Audio Coding 3
Mode extension : CM (complete main)
Format settings, Endianness : Big
Codec ID : A_AC3
Duration : 1h 25mn
Bit rate mode : Constant
Bit rate : 640 Kbps
Channel(s) : 6 channels
Channel positions : Front: L C R, Side: L R, LFE
Sampling rate : 48.0 KHz
Compression mode : Lossy
Stream size : 392 MiB (5%)
Title : Boogie, el aceitoso 3D (2009)-*censored*
Language : Spanish
Default : No
Forced : No

Audio #2
ID : 3
Format : AC-3
Format/Info : Audio Coding 3
Mode extension : CM (complete main)
Format settings, Endianness : Big
Codec ID : A_AC3
Duration : 1h 25mn
Bit rate mode : Constant
Bit rate : 256 Kbps
Channel(s) : 2 channels
Channel positions : Front: L R
Sampling rate : 44.1 KHz
Compression mode : Lossy
Delay relative to video : 22s 450ms
Stream size : 157 MiB (2%)
Title : Boogie, el aceitoso 3D (2009)-*censored*
Language : Polish
Default : Yes
Forced : No

Text #1
ID : 4
Format : VobSub
Muxing mode : zlib
Codec ID : S_VOBSUB
Codec ID/Info : Picture based subtitle format used on DVDs
Title : Boogie, el aceitoso 3D (2009)-*censored*
Language : Polish
Default : Yes
Forced : No

Text #2
ID : 5
Format : VobSub
Muxing mode : zlib
Codec ID : S_VOBSUB
Codec ID/Info : Picture based subtitle format used on DVDs
Title : Boogie, el aceitoso 3D (2009)-*censored*
Language : English
Default : No
Forced : No
Szczegóły torrenta
Hash
8769cd7fd6091235f65dfcc130f4d643b057f56c
Aktualizacja
25/01/2018 19:48:52 (Kliknij na [uaktualnij] by odświeżyc statystyki seedów i leecherów).
Zobacz również
Komentarze


Brak komentarzy...


Wstecz