Witamy Guest Strona Główna Regulamin Kontakt
User: Hasło:
Stwórz darmowe konto Odzyskiwanie hasła i loginu

Kategorie
 » Wszystkie torrenty
Filmy
 » DVD-R1998  
 » VCD/SVCD77  
 » BluRay/x2649961  
 » DivX/XviD LEKTOR/NAPISY PL95604  
 » RMVB5972  
 » DivX/XviD ENG/...19187  
 » HD1284  
 » 3D320  
Seriale
 » Seriale Polskie6630  
 » Seriale Zagraniczne28846  
Dla Dzieci
 » Bajki Pl/Eng1328  
Anime
 » Anime Pl136  
 » Anime1288  
Muzyka
 » Muzyka Polska/Zagraniczna40176  
 » Soundtracki548  
 » Teledyski/Koncerty2379  
Gry
 » Gry PC16983  
 » Gry PS2/PS3/PSP1104  
 » Gry Xbox1168  
 » Gry - Inne Konsole495  
GSM/PDA
 » Tapety GSM/PDA111  
 » Programy GSM/PDA361  
 » Filmy GSM/PDA124  
 » Dzwonki GSM/PDA115  
 » Gry GSM/PDA234  
Książki/Czasopisma
 » E-Booki19649  
 » Audio-Booki7204  
 » Czasopisma1019  
 » Komiksy747  
Programy
 » Windows12112  
 » Linux376  
 » Macintosh107  
Inne
 » Śmieszne109  
 » Tapety2521  
 » Sport1780  
 » Pozostałe290  
Erotyka
 » Czasopisma125  
 » Zdjęcia 6942  
 » Filmy162939  
 » Gry 67  
 » Hentai+1854  
Archiwum


KOŁYSANKA *2010* [DVDRip RMVB NN] [FILM POLSKI]

Kategoria: RMVB
Wstawił:  Bezzol
Dodano: 05/07/2015
Rozmiar: 310.72 MB
Seedów: 0
Leecherów: 0
Komentarze: 0

INFO

reżyseria: Juliusz Machulski
scenariusz: Adam Dobrzycki
gatunek: Czarna komedia
produkcja: Polska
premiera: 12 lutego 2010 (Polska) 12 lutego 2010 (świat)

OPIS

W mazurskiej wiosce osiedla się siedmioosobowa rodzina Makarewiczów. Po pewnym czasie w okolicy zaczynają ginąć ludzie − sprawą interesuje się policja oraz telewizja. Trop wiedzie do domostw zamieszkiwanych przez nową we wsi rodzinę wampirów − zajmującą się produkcją ozdób ludowych. Rodzina porywa wszystkie osoby (księdza i ministranta, kobietę z opieki społecznej, osoby z telewizji, Niemca i tłumaczkę, listonosza, policjanta) dla krwi, którą żywi się rodzina. Film kończy się, gdy rodzina Makarewiczów przeprowadza się do Warszawy.

OBSADA

Robert Więckiewicz jako Makarewicz
Małgorzata Buczkowska-Szlenkier jako żona Makarewicza
Janusz Chabior jako dziadek Makarewicz
Krzysztof Stelmaszyk jako komendant
Katarzyna Kwiatkowska jako policjantka
Przemysław Bluszcz jako Nowak
Antoni Pawlicki jako ministrant
Ilona Ostrowska jako pani reżyser
Michał Zieliński jako ksiądz
Jan Monczka jako Niemiec
Aleksandra Kisio jako Agata, tłumaczka Niemca
Ewa Ziętek jako pani Kasia
Krzysztof Kiersznowski jako nadzorca domu Makarewiczów
Maciej Marczewski jako lekarz
Filip Ochiński jako Wojtek Makarewicz (syn)
Jacek Koman jako listonosz

DANE

Format : RealMedia
File size : 311 MiB
Duration : 1h 35mn
Overall bit rate : 441 Kbps

Video
ID : 1
Format : RealVideo 4
Codec ID : RV40
Codec ID/INFO : Based on AVC (H.264), Real Player 9
Duration : 1h 35mn
Bit rate : 377 Kbps
Width : 704 pixels
Height : 288 pixels
Display aspect ratio : 2.40:1
Frame rate : 25.000 fps
Bits/(Pixel*Frame) : 0.074
Stream size : 257 MiB (83%)

Audio
ID : 0
Format : Cooker
Codec ID : cook
Codec ID/INFO : Based on G.722.1, Real Player 6
Duration : 1h 35mn
Bit rate : 64.1 Kbps
Channel(s) : 2 channels
Sampling rate : 44.1 KHz
Bit depth : 16 bits
Stream size : 43.7 MiB (14%)
Szczegóły torrenta
Hash
54ae128834a147139d3e145485bb5b75b5ebf2fd
Aktualizacja
29/01/2023 15:51:46 (Kliknij na [uaktualnij] by odświeżyc statystyki seedów i leecherów).
Zobacz również
Komentarze


Brak komentarzy...


Wstecz