Witamy Guest Strona Główna Regulamin Kontakt
User: Hasło:
Stwórz darmowe konto Odzyskiwanie hasła i loginu

Kategorie
 » Wszystkie torrenty
Filmy
 » DVD-R1924  
 » VCD/SVCD75  
 » BluRay/x2645190  
 » DivX/XviD LEKTOR/NAPISY PL59775  
 » DivX/XviD ENG/...19116  
 » RMVB5955  
 » HD832  
 » 3D252  
Seriale
 » Seriale Polskie3535  
 » Seriale Zagraniczne19490  
Dla Dzieci
 » Bajki Pl/Eng1054  
Anime
 » Anime Pl118  
 » Anime1237  
Muzyka
 » Muzyka Polska/Zagraniczna18512  
 » Soundtracki371  
 » Teledyski/Koncerty2007  
Gry
 » Gry PC10775  
 » Gry PS2/PS3/PSP1080  
 » Gry Xbox1164  
 » Gry - Inne Konsole407  
GSM/PDA
 » Tapety GSM/PDA108  
 » Programy GSM/PDA329  
 » Filmy GSM/PDA123  
 » Dzwonki GSM/PDA113  
 » Gry GSM/PDA225  
Książki/Czasopisma
 » E-Booki9394  
 » Audio-Booki1296  
 » Czasopisma904  
 » Komiksy667  
Programy
 » Windows11320  
 » Linux365  
 » Macintosh94  
Inne
 » Tapety2388  
 » Śmieszne72  
 » Sport915  
 » Pozostałe275  
Erotyka
 » Czasopisma119  
 » Zdjęcia 6180  
 » Filmy75133  
 » Gry 66  
 » Hentai+1853  
Archiwum


Transformers: Ostatni Rycerz 3D Transformers: The Last Knight *2017* (IMAX Edition) [PLSUBBED 1080p 3D Half Over Under DTS 5 1 AC3 BluRay x264 SONDA] [ENG]

Kategoria: 3D
Wstawił:  Sonda
Dodano: 24/09/2017
Rozmiar: 18.52 GB
Seedów: 1
Leecherów: 2
Komentarze: 0



Film w wersji 3D Half Over-Under.
Do odtworzenia filmu WYMAGANY odpowiedni sprzęt (TV 3D)
===========================================
UWAGA: Napisy na stałe wtopione w film. Zapraszam wszystkich chętnych !!!!!!!
======================================================


gatunek: Akcja,Sci-Fi
produkcja: USA
premiera: 23 czerwca 2017 (Polska) 21 czerwca 2017 (świat)
reżyseria: Michael Bay
scenariusz: Art Marcum,Matt Holloway,Ken Nolan

http://www.imdb.com/title/tt3371366/

Obsada:

Mark Wahlberg ... Cade Yeager
Anthony Hopkins ... Sir Edmund Burton
Josh Duhamel ... Pułkownik William Lennox
Josh Duhamel ... Pułkownik William Lennox
Laura Haddock ... Vivian Wembley
Santiago Cabrera ... Santos
Isabela Moner ... Izabella
Jerrod Carmichael ... Jimmy
Stanley Tucci ... Merlin

Opis:

"Transformers: Ostatni Rycerz" rozbija rdzeń mitu o tej popularnej serii, redefiniując zarazem pojęcie bohatera. Ludzie i Transformery toczą ze sobą wojnę, Optiums Prime odszedł. Klucz do ocalenia naszej przyszłości jest zakopany w sekretach przeszłości, w zapomnianej historii obecności Transformerów na Ziemi. Uratowanie ludzkości leży w rękach nieoczywistych sprzymierzeńców: Cade'a Yeagera (Mark Wahlberg), Bumblebee oraz brytyjskiego lorda (sir Anthony Hopkins) i oksfordzkiej profesorki (Laura Haddock).

Storyline:

Optimus Prime finds his dead home planet, Cybertron, in which he comes to find he was responsible for its destruction. He finds a way to bring Cybertron back to life, but in order to do so, Optimus needs to find an artifact that is on Earth.

Screenshot:

https://i.imgur.com/sFOXfzi.jpg
https://i.imgur.com/CveyYAS.jpg
https://i.imgur.com/NHlrzkd.jpg
https://i.imgur.com/8bYLQZw.jpg


Dane techniczne:

General
Format                         : Matroska
Format version                 : Version 2
File size                      : 18.5 GiB
Duration                       : 2 h 34 min
Overall bit rate               : 17.1 Mb/s
Movie name                     : Transformers.The.Last.Knight.3D.2017.PLSUBBED.HOU.BDRip.1080p.Sonda
Encoded date                   : UTC 2017-09-24 05:48:48
Writing application            : mkvmerge v5.7.0 ('The Whirlwind&#039 built on Jul  8 2012 20:08:51
Writing library                : libebml v1.2.3 + libmatroska v1.3.0

Video
ID                             : 1
Format                         : AVC
Format/Info                    : Advanced Video Codec
Format profile                 : High@L4.1
Format settings, CABAC         : Yes
Format settings, ReFrames      : 4 frames
Codec ID                       : V_MPEG4/ISO/AVC
Duration                       : 2 h 34 min
Bit rate                       : 15.0 Mb/s
Width                          : 1 920 pixels
Height                         : 1 080 pixels
Display aspect ratio           : 1.90:1 / 2.39:1 (IMAX)
Frame rate mode                : Constant
Frame rate                     : 23.976 (24000/1001) FPS
Color space                    : YUV
Chroma subsampling             : 4:2:0
Bit depth                      : 8 bits
Scan type                      : Progressive
Bits/(Pixel*Frame)             : 0.302
Stream size                    : 15.8 GiB (85%)
Title                          : PLSUBBED Rip by Sonda
Writing library                : x264 core 148 r2638 7599210
Encoding settings              : cabac=1 / ref=4 / deblock=1:-1:-1 / rc=2pass
Default                        : Yes
Forced                         : No

Audio #1
ID                             : 2
Format                         : AC-3
Format/Info                    : Audio Coding 3
Format settings, Endianness    : Big
Codec ID                       : A_AC3
Duration                       : 2 h 34 min
Bit rate mode                  : Constant
Bit rate                       : 640 kb/s
Channel(s)                     : 6 channels
Channel positions              : Front: L C R, Side: L R, LFE
Sampling rate                  : 48.0 kHz
Frame rate                     : 31.250 FPS (1536 spf)
Bit depth                      : 16 bits
Compression mode               : Lossy
Stream size                    : 708 MiB (4%)
Title                          : AC3 5.1 ENG
Language                       : English
Service kind                   : Complete Main
Default                        : Yes
Forced                         : Yes

Audio #2
ID                             : 3
Format                         : DTS
Format/Info                    : Digital Theater Systems
Mode                           : 16
Format settings, Endianness    : Big
Codec ID                       : A_DTS
Duration                       : 2 h 34 min
Bit rate mode                  : Constant
Bit rate                       : 1 509 kb/s
Channel(s)                     : 6 channels
Channel positions              : Front: L C R, Side: L R, LFE
Sampling rate                  : 48.0 kHz
Frame rate                     : 93.750 FPS (512 spf)
Bit depth                      : 24 bits
Compression mode               : Lossy
Stream size                    : 1.63 GiB (9%)
Title                          : DTS 5.1 ENG
Language                       : English
Default                        : No
Forced                         : No

Source:
A/V-Transformers: The Last Knight (IMAX Edition) BDRemux 2D/3D
Converted the TrueHD 7.1 to DTS HD-MA 7.1
Thanks - Sonda

Szczegóły torrenta
Hash
0f93bc841025f0244e92b5493bf7b0f20ca0af3d
Aktualizacja
28/04/2018 00:25:25 (Kliknij na [uaktualnij] by odświeżyc statystyki seedów i leecherów).
Zobacz również
Komentarze


Brak komentarzy...


Wstecz