Witamy Guest Strona Główna Regulamin Kontakt
User: Hasło:
Stwórz darmowe konto Odzyskiwanie hasła i loginu

Kategorie
 » Wszystkie torrenty
Filmy
 » DVD-R1872  
 » VCD/SVCD75  
 » BluRay/x2643932  
 » DivX/XviD LEKTOR/NAPISY PL54860  
 » DivX/XviD ENG/...19080  
 » RMVB5948  
 » HD678  
 » 3D194  
Seriale
 » Seriale Polskie2367  
 » Seriale Zagraniczne13284  
Dla Dzieci
 » Bajki Pl/Eng1011  
Anime
 » Anime Pl113  
 » Anime1237  
Muzyka
 » Muzyka Polska/Zagraniczna15889  
 » Soundtracki290  
 » Teledyski/Koncerty1908  
Gry
 » Gry PC9467  
 » Gry PS2/PS3/PSP1072  
 » Gry Xbox1153  
 » Gry - Inne Konsole406  
GSM/PDA
 » Tapety GSM/PDA108  
 » Programy GSM/PDA311  
 » Filmy GSM/PDA123  
 » Dzwonki GSM/PDA113  
 » Gry GSM/PDA224  
Książki/Czasopisma
 » E-Booki9035  
 » Audio-Booki938  
 » Czasopisma863  
 » Komiksy623  
Programy
 » Windows10420  
 » Linux363  
 » Macintosh94  
Inne
 » Tapety2359  
 » Śmieszne72  
 » Sport895  
 » Pozostałe254  
Erotyka
 » Czasopisma110  
 » Zdjęcia 5948  
 » Filmy46670  
 » Gry 65  
 » Hentai+1853  
Archiwum


Columbo Cygara dla szefa [DVDRip Xvid] [Lektor PL]

Kategoria: Seriale Zagraniczne
Wstawił:  viola62
Dodano: 29/10/2016
Rozmiar: 699.24 MB
Seedów: 0
Leecherów: 0
Komentarze: 0

Pobierz plik
info/


twórca: Richard Levinson
gatunek: Kryminał
pozostałe informacje o serialu
Columbo

muzyka: Billy Goldenberg,Dave Grusin
zdjęcia: Ray Rennahan
studio: NBC Universal Television
kraj: USA

http://www.filmweb.pl/serial/Columbo-1968-534418/photos/449882

http://www.filmweb.pl/serial/Columbo-1968-534418/photos/449893

http://www.filmweb.pl/serial/Columbo-1968-534418/photos/449884

opis/


Zmięty prochowiec, cygaro i niepokojące szklane oko sprawiły, że bohater zagościł w wyobraźni widzów na wiele lat. Kultowy już dzisiaj serial kryminalny ma na swoim koncie wiele nagród, rekord popularności, a do jego sławy przyczynił się m.in. Steven Spielberg. Gościnnie w produkcji wystąpili John Cassavetes, Leslie Nielsen i Martin Sheen, a wielu aktorów właśnie od "Columbo" rozpoczynało swoja karierę (m.in. Kim Cattrall, gwiazda "Seksu w wielkim mieście&quot. W roli jednego z najbardziej znanych detektywów na świecie wystąpił legendarny aktor Peter Falk.

obsada/



Peter Falk ============ Porucznik Frank Columbo
Gene Barry ============ Doktor Ray Flemming
Katherine Justice ==== Joan Hudson
Nina Foch ============ Carol Flemming


dane tech./


Format : AVI
Format/Info : Audio Video Interleave
File size : 700 MiB
Duration : 1h 10mn
Overall bit rate : 1 393 Kbps
Writing application : FairUse Wizard - http://fairusewizard.com
Writing library : The best and REALLY easy backup tool

Video
ID : 0
Format : MPEG-4 Visual
Format profile : Advanced Simple@L5
Format settings, BVOP : 1
Format settings, QPel : No
Format settings, GMC : No warppoints
Format settings, Matrix : Default (MPEG)
Muxing mode : Packed bitstream
Codec ID : XVID
Codec ID/Hint : XviD
Duration : 1h 10mn
Bit rate : 1 256 Kbps
Width : 592 pixels
Height : 480 pixels
Display aspect ratio : 5:4
Frame rate : 25.000 fps
Color space : YUV
Chroma subsampling : 4:2:0
Bit depth : 8 bits
Scan type : Progressive
Compression mode : Lossy
Bits/(Pixel*Frame) : 0.177
Stream size : 631 MiB (90%)
Writing library : XviD 1.2.0.dev47 (UTC 2006-11-01)

Audio
ID : 1
Format : MPEG Audio
Format version : Version 1
Format profile : Layer 3
Mode : Joint stereo
Mode extension : MS Stereo
Codec ID : 55
Codec ID/Hint : MP3
Duration : 1h 10mn
Bit rate mode : Constant
Bit rate : 128 Kbps
Channel(s) : 2 channels
Sampling rate : 48.0 KHz
Compression mode : Lossy
Stream size : 64.3 MiB (9%)
Alignment : Aligned on interleaves
Interleave, duration : 40 ms (1.00 video frame)
Interleave, preload duratio : 504 ms
Writing library : LAME3.97
Szczegóły torrenta
Hash
fa575eb318895d1d06ac51d18a60c63fcf9c3471
Główny tracker
http://tracker.devil-Darmowe-ToRenty.pl/announce [EXTERNAL]
Aktualizacja
12/12/2016 16:43:57 (Kliknij na [uaktualnij] by odświeżyc statystyki seedów i leecherów).
Zobacz również
Komentarze


Brak komentarzy...


Wstecz