Witamy Guest Strona Główna Regulamin Kontakt
User: Hasło:
Stwórz darmowe konto Odzyskiwanie hasła i loginu

Kategorie
 » Wszystkie torrenty
Filmy
 » DVD-R1826  
 » VCD/SVCD74  
 » BluRay/x2643726  
 » DivX/XviD LEKTOR/NAPISY PL52796  
 » DivX/XviD ENG/...19078  
 » RMVB5947  
 » HD543  
 » 3D155  
Seriale
 » Seriale Polskie2290  
 » Seriale Zagraniczne12094  
Dla Dzieci
 » Bajki Pl/Eng1000  
Anime
 » Anime Pl105  
 » Anime1237  
Muzyka
 » Muzyka Polska/Zagraniczna15530  
 » Soundtracki284  
 » Teledyski/Koncerty1891  
Gry
 » Gry PC9251  
 » Gry PS2/PS3/PSP1072  
 » Gry Xbox1151  
 » Gry - Inne Konsole405  
GSM/PDA
 » Tapety GSM/PDA108  
 » Programy GSM/PDA285  
 » Filmy GSM/PDA122  
 » Dzwonki GSM/PDA111  
 » Gry GSM/PDA220  
Książki/Czasopisma
 » E-Booki8973  
 » Audio-Booki841  
 » Czasopisma847  
 » Komiksy610  
Programy
 » Windows10306  
 » Linux363  
 » Macintosh94  
Inne
 » Tapety2357  
 » Śmieszne72  
 » Sport881  
 » Pozostałe246  
Erotyka
 » Czasopisma107  
 » Zdjęcia 5935  
 » Filmy45624  
 » Gry 65  
 » Hentai+1853  
Archiwum


Zorro 1957 COLORiZED PL CUSTOM AC3 DVDRip DivX RETRO

Kategoria: Seriale Zagraniczne
Wstawił:  viola62
Dodano: 30/10/2016
Rozmiar: 4.01 GB
Seedów: 0
Leecherów: 2
Komentarze: 0

Pobierz plik
info/


Polski tytuł: Zorro
Oryginalny tytuł: Zorro
Produkcja: USA
Gatunek: Fmilijny, Przygodowy
Data premiery: 1957-10-10 (Świat)
Reżyseria: Hollingsworth Morse, Charles Barton i in.
Scenariusz: Johnston McCulley, Bob Wehling i in.
Muzyka: William Lava
Zdjęcia: Gordon Avil
Czas trwania: 25 min.

Odcinki 1-10


opis/


Don Diego powraca do domu i dostrzega, że jego rodzinnym miastem rządzi okrutny kapitan Monastario. Mężczyzna postanawia przeciwstawić się tyranii.


obsada/


Guy Williams ======== Zorro / Don Diego de la Vega / Don Diego
Gene Sheldon ======== Bernardo
Henry Calvista ====== Sgt. Demetrio Lopez Garcia
Don Diamond ========= Corp. Reyes / Cpl. Reyes / Lancer Hivarro
George J. Lewis ======= Don Alejandro de la Vega

dane techn./


Format           : AVI
Format/Info         : Audio Video Interleave
File size          : 410 MiB
Duration          : 24mn 15s
Overall bit rate      : 2 362 Kbps
Movie name         : CUSTOM.AC3.DVDRip.DivX-RETRO
Writing application     : VirtualDubMod 1.5.10.2 (build 2540/release)
Writing library       : VirtualDubMod build 2540/release

Video
ID             : 0
Format           : MPEG-4 Visual
Format settings, BVOP    : 1
Format settings, QPel    : No
Format settings, GMC    : No warppoints
Format settings, Matrix   : Default (H.263)
Muxing mode         : Packed bitstream
Codec ID          : DX50
Codec ID/Hint        : DivX 5
Duration          : 24mn 15s
Bit rate          : 2 160 Kbps
Width            : 704 pixels
Height           : 528 pixels
Display aspect ratio    : 4:3
Frame rate         : 25.000 fps
Color space         : YUV
Chroma subsampling     : 4:2:0
Bit depth          : 8 bits
Scan type          : Progressive
Compression mode      : Lossy
Bits/(Pixel*Frame)     : 0.232
Stream size         : 375 MiB (91%)
Writing library       : DivX 5.2.1 Alpha (UTC 2004-09-0

Audio
ID             : 1
Format           : AC-3
Format/Info         : Audio Coding 3
Mode extension       : CM (complete main)
Format settings, Endianness : Big
Codec ID          : 2000
Duration          : 24mn 15s
Bit rate mode        : Constant
Bit rate          : 192 Kbps
Channel(s)         : 2 channels
Channel positions      : Front: L R
Sampling rate        : 48.0 KHz
Compression mode      : Lossy
Stream size         : 33.3 MiB (8%)
Alignment          : Split accross interleaves
Interleave, duration    : 40 ms (1.00 video frame)
Interleave, preload duratio : 500 ms


http://www.filmweb.pl/film/Znak+Zorro-1958-114886
Szczegóły torrenta
Hash
f52bc98bff115bd2439f388a3403d045fb572c13
Główny tracker
http://tracker.devil-Darmowe-ToRenty.pl/announce [EXTERNAL]
Aktualizacja
24/02/2017 22:00:18 (Kliknij na [uaktualnij] by odświeżyc statystyki seedów i leecherów).
Zobacz również
Komentarze


Brak komentarzy...


Wstecz