Witamy Guest (Zaloguj) Strona Główna Regulamin Kontakt
User: Hasło:
Stwórz darmowe konto Odzyskiwanie hasła i loginu

Kategorie
 » Wszystkie torrenty
Filmy :
 » DVD-R1836  
 » VCD/SVCD74  
 » BluRay/x2643780  
 » DivX/XviD LEKTOR/NAPISY PL52966  
 » DivX/XviD ENG/...19082  
 » RMVB6000  
 » HD544  
 » 3D155  
Seriale :
 » Seriale Polskie2313  
 » Seriale Zagraniczne12403  
Dla Dzieci :
 » Bajki Pl/Eng981  
Anime :
 » Anime Pl116  
 » Anime1328  
Muzyka :
 » Muzyka Polska/Zagraniczna16124  
 » Soundtracki298  
 » Teledyski/Koncerty1958  
Gry :
 » Gry PC9305  
 » Gry PS2/PS3/PSP1082  
 » Gry Xbox1162  
 » Gry - Inne Konsole467  
GSM/PDA :
 » Tapety GSM/PDA110  
 » Programy GSM/PDA287  
 » Filmy GSM/PDA122  
 » Dzwonki GSM/PDA111  
 » Gry GSM/PDA220  
Ksiazki/Czasopisma :
 » E-Booki9018  
 » Audio-Booki828  
 » Czasopisma871  
 » Komiksy614  
Programy :
 » Windows10822  
 » Linux386  
 » Macintosh94  
Inne :
 » Tapety2380  
 » Śmieszne72  
 » Sport934  
 » Pozostale247  
Erotyka :
 » Czasopisma109  
 » Zdjęcia 5952  
 » Filmy49053  
 » Gry 65  
 » Hentai+1853  


Księżniczka Łabędzi 3 Skarb czarnoksiężnika *1998* [DVDRip XviD] [Dubbing PL]

Kategoria: Bajki Pl/Eng
Wystawil:  viola62
Data: 11/01/2017
Rozmiar: 698.75 MB
Seedow: 1
Leecherow: 3




Pobierz Torrent
...( Info )...

Księżniczka łabędzi: Skarb czarnoksiężnika
The Swan Princess: The Mystery of the Enchanted Treasure (199
gatunek: Animacja, Familijny, Baśń
produkcja: USA
premiera: 4 sierpnia 1998 (świat)
reżyseria: Richard Rich
scenariusz: Richard Rich, Brian Nissen

http://www.filmweb.pl/film/Ksi%C4%99%C5%BCniczka+%C5%81ab%C4%99dzi%3A+Skarb+Czarnoksi%C4%99%C5%BCnika-1998-107891

https://fdb.pl/film/19159-ksiezniczka-labedzi-skarb-czarnoksieznika

https://fdb.pl/film/19159-ksiezniczka-labedzi-skarb-czarnoksieznika

...( Opis )...

Zła czarownica Zelda stara się wywołać zamęt i uprzykrzyć życie mieszkańcom okolic Jeziora Łabędziego, kradnąc Zakazane Dzieło - skarb o magicznych właściwościach, zapewniający nieograniczona moc swemu posiadaczowi. Aby zrealizować swój nikczemny plan, Zelda porywa Odettę, Księżniczkę Łabędzi.

...( Obsada )...

Michelle Nicastro...Odette (głos)
Steve Vinovich...Puffin (głos)
Doug Stone...Speed (głos)
Brian Nissen...Derek (głos)
Sean Wright...Rothbart (głos)
Donald Sage Mackay...Jean-Bob (głos)
Christy Landers...Uberta (głos)
Katja Zoch...Zelda (głos)

...( Dane Techniczne )...

Format                      : AVI
Format/Info                 : Audio Video Interleave
File size                   : 698 MiB
Duration                    : 1h 9mn
Overall bit rate            : 1 401 Kbps
Writing application         : VirtualDubMod 1.5.10.2 (build 2540/release)
Writing library             : VirtualDubMod build 2540/release

Video
ID                          : 0
Format                      : MPEG-4 Visual
Format profile              : Advanced Simple@L5
Format settings, BVOP       : 2
Format settings, QPel       : No
Format settings, GMC        : No warppoints
Format settings, Matrix     : Default (H.263)
Codec ID                    : XVID
Codec ID/Hint               : XviD
Duration                    : 1h 9mn
Bit rate                    : 1 263 Kbps
Width                       : 720 pixels
Height                      : 384 pixels
Display aspect ratio        : 1.85:1
Frame rate                  : 25.000 fps
Color space                 : YUV
Chroma subsampling          : 4:2:0
Bit depth                   : 8 bits
Scan type                   : Progressive
Compression mode            : Lossy
Bits/(Pixel*Frame)          : 0.183
Stream size                 : 630 MiB (90%)
Writing library             : XviD 64

Audio
ID                          : 1
Format                      : MPEG Audio
Format version              : Version 1
Format profile              : Layer 3
Mode                        : Joint stereo
Mode extension              : MS Stereo
Codec ID                    : 55
Codec ID/Hint               : MP3
Duration                    : 1h 9mn
Bit rate mode               : Constant
Bit rate                    : 128 Kbps
Channel(s)                  : 2 channels
Sampling rate               : 48.0 KHz
Compression mode            : Lossy
Stream size                 : 63.8 MiB (9%)
Alignment                   : Aligned on interleaves
Interleave, duration        : 40 ms (1.00 video frame)
Interleave, preload duratio : 504 ms

PS/ ---------> POBRALES --------> SEEDUJ /THX/
Szczegoly torrenta
Info Hash
efc76fd13e2da5fdad0f60e333c300138a01614c
Tracker
http://tracker.devil-Darmowe-ToRenty.pl/announce [EXTERNAL]
Uaktualnienie
21/01/2017 04:20:18 (Jeżeli nie widać seeda kliknij na [uaktualnij] by odświeżyc statystyki).
Komentarze


Brak komentarzy...


Wstecz