Witamy Guest (Zaloguj) Strona Główna Regulamin Kontakt
User: Hasło:
Stwórz darmowe konto Odzyskiwanie hasła i loginu

Kategorie
 » Wszystkie torrenty
Filmy :
 » DVD-R1836  
 » VCD/SVCD74  
 » BluRay/x2643780  
 » DivX/XviD LEKTOR/NAPISY PL52988  
 » DivX/XviD ENG/...19082  
 » RMVB6000  
 » HD544  
 » 3D155  
Seriale :
 » Seriale Polskie2313  
 » Seriale Zagraniczne12405  
Dla Dzieci :
 » Bajki Pl/Eng991  
Anime :
 » Anime Pl116  
 » Anime1328  
Muzyka :
 » Muzyka Polska/Zagraniczna16128  
 » Soundtracki298  
 » Teledyski/Koncerty1958  
Gry :
 » Gry PC9306  
 » Gry PS2/PS3/PSP1082  
 » Gry Xbox1162  
 » Gry - Inne Konsole467  
GSM/PDA :
 » Tapety GSM/PDA110  
 » Programy GSM/PDA287  
 » Filmy GSM/PDA122  
 » Dzwonki GSM/PDA111  
 » Gry GSM/PDA220  
Ksiazki/Czasopisma :
 » E-Booki9018  
 » Audio-Booki832  
 » Czasopisma871  
 » Komiksy614  
Programy :
 » Windows10822  
 » Linux386  
 » Macintosh94  
Inne :
 » Tapety2380  
 » Śmieszne72  
 » Sport934  
 » Pozostale247  
Erotyka :
 » Czasopisma109  
 » Zdjęcia 5952  
 » Filmy50967  
 » Gry 65  
 » Hentai+1853  


Żegnajcie towarzysze *2012* odc 2 Groźba [480p] [DVBRip] [x264] [Lektor PL]

Kategoria: BluRay/x264
Wystawil:  viola62
Data: 22/12/2016
Rozmiar: 743.67 MB
Seedow: 13
Leecherow: 17




Pobierz Torrent
...( Info )...


Żegnajcie towarzysze
serial dokumentalny Polska 2012
Reżyseria: Andrei Nekrasov


...( Opis )...


Próba prześledzenia wydarzeń związanych z rozpadem ZSRR i upadkiem komunizmu, podkreślająca udział Polski w działaniach, które doprowadziły do obalenia systemu.

W tym odcinku..
Na początku lat 80. pojawiły się znaki, że świat wokół do tej pory potężnego Związku Radzieckiego się zmienia. W 1978 roku Karol Wojtyła został wybrany nowym papieżem, a dwa lata później sześćdziesiąt pięć państw zbojkotowało igrzyska olimpijskie w Moskwie. W 1980 roku w Stoczni Gdańskiej rozpoczął się strajk, w którym przeciwko systemowi obrócili się robotnicy, intelektualiści czy chłopi. Kilkanaście miesięcy później Wojciech Jaruzelski ogłosił wprowadzenie stanu wojennego.


...( Dane Techniczne )...


Format                      : Matroska
Format version              : Version 4 / Version 2
File size                   : 743 MiB
Duration                    : 52mn 48s
Overall bit rate            : 1 967 Kbps
Encoded date                : UTC 2015-07-12 18:24:43
Writing application         : mkvmerge v7.3.0 ('Nouages&#039 64bit built on Oct 22 2014 18:53:34
Writing library             : libebml v1.3.0 + libmatroska v1.4.1
DURATION                    : 00:52:45.690000000
NUMBER_OF_FRAMES            : 98876
NUMBER_OF_BYTES             : 37968384
_STATISTICS_WRITING_APP     : mkvmerge v7.3.0 ('Nouages&#039 64bit built on Oct 22 2014 18:53:34
_STATISTICS_WRITING_DATE_UT : 2015-07-12 18:24:43
_STATISTICS_TAGS            : BPS DURATION NUMBER_OF_FRAMES NUMBER_OF_BYTES

Video
ID                          : 1
Format                      : AVC
Format/Info                 : Advanced Video Codec
Format profile              : Main@L3
Format settings, CABAC      : Yes
Format settings, ReFrames   : 4 frames
Format settings, GOP        : M=4, N=24
Codec ID                    : V_MPEG4/ISO/AVC
Bit rate                    : 1 672 Kbps
Width                       : 720 pixels
Height                      : 576 pixels
Display aspect ratio        : 16:9
Frame rate mode             : Variable
Original frame rate         : 25.000 fps
Color space                 : YUV
Chroma subsampling          : 4:2:0
Bit depth                   : 8 bits
Scan type                   : Interlaced
Scan order                  : Bottom Field First
Default                     : Yes
Forced                      : No
Color range                 : Limited
Color primaries             : BT.601 PAL
Transfer characteristics    : BT.470 System B, BT.470 System G
Matrix coefficients         : BT.601

Audio #1
ID                          : 2
Format                      : MPEG Audio
Format version              : Version 1
Format profile              : Layer 2
Codec ID                    : A_MPEG/L2
Codec ID/Hint               : MP2
Duration                    : 52mn 48s
Bit rate mode               : Constant
Bit rate                    : 160 Kbps
Channel(s)                  : 2 channels
Sampling rate               : 48.0 KHz
Compression mode            : Lossy
Delay relative to video     : -850ms
Stream size                 : 60.4 MiB (8%)
Language                    : Polish
Default                     : Yes
Forced                      : No

Audio #2
ID                          : 3
Format                      : E-AC-3
Format/Info                 : Audio Coding 3
Format settings, Endianness : Big
Codec ID                    : A_EAC3
Duration                    : 52mn 48s
Bit rate mode               : Constant
Bit rate                    : 96.0 Kbps
Channel(s)                  : 2 channels
Channel positions           : Front: L R
Sampling rate               : 48.0 KHz
Compression mode            : Lossy
Delay relative to video     : -700ms
Stream size                 : 36.3 MiB (5%)
Default                     : No
Forced                      : No


PS/POBRALES --------> SEEDUJ /THX/
Szczegoly torrenta
Info Hash
ec57c69666e0f46fcf20ea2b5c38d5ddd24864ab
Tracker
http://tracker.devil-Darmowe-ToRenty.pl/announce [EXTERNAL]
Uaktualnienie
23/01/2017 16:47:41 (Jeżeli nie widać seeda kliknij na [uaktualnij] by odświeżyc statystyki).
Komentarze


Brak komentarzy...


Wstecz