Witamy Guest Strona Główna Regulamin Kontakt
User: Hasło:
Stwórz darmowe konto Odzyskiwanie hasła i loginu

Kategorie
 » Wszystkie torrenty
Filmy
 » DVD-R1907  
 » VCD/SVCD75  
 » BluRay/x2644439  
 » DivX/XviD LEKTOR/NAPISY PL56834  
 » DivX/XviD ENG/...19086  
 » RMVB5952  
 » HD777  
 » 3D232  
Seriale
 » Seriale Polskie2695  
 » Seriale Zagraniczne14826  
Dla Dzieci
 » Bajki Pl/Eng1031  
Anime
 » Anime Pl115  
 » Anime1237  
Muzyka
 » Muzyka Polska/Zagraniczna17442  
 » Soundtracki333  
 » Teledyski/Koncerty1955  
Gry
 » Gry PC10315  
 » Gry PS2/PS3/PSP1076  
 » Gry Xbox1159  
 » Gry - Inne Konsole407  
GSM/PDA
 » Tapety GSM/PDA108  
 » Programy GSM/PDA313  
 » Filmy GSM/PDA123  
 » Dzwonki GSM/PDA113  
 » Gry GSM/PDA225  
Książki/Czasopisma
 » E-Booki9134  
 » Audio-Booki1009  
 » Czasopisma875  
 » Komiksy636  
Programy
 » Windows10621  
 » Linux363  
 » Macintosh94  
Inne
 » Tapety2386  
 » Śmieszne72  
 » Sport905  
 » Pozostałe275  
Erotyka
 » Czasopisma111  
 » Zdjęcia 6015  
 » Filmy52006  
 » Gry 66  
 » Hentai+1853  
Archiwum


Żegnajcie towarzysze *2012* odc 2 Groźba [480p] [DVBRip] [x264] [Lektor PL]

Kategoria: BluRay/x264
Wstawił:  viola62
Dodano: 22/12/2016
Rozmiar: 743.67 MB
Seedów: 0
Leecherów: 2
Komentarze: 0

...( Info )...


Żegnajcie towarzysze
serial dokumentalny Polska 2012
Reżyseria: Andrei Nekrasov


...( Opis )...


Próba prześledzenia wydarzeń związanych z rozpadem ZSRR i upadkiem komunizmu, podkreślająca udział Polski w działaniach, które doprowadziły do obalenia systemu.

W tym odcinku..
Na początku lat 80. pojawiły się znaki, że świat wokół do tej pory potężnego Związku Radzieckiego się zmienia. W 1978 roku Karol Wojtyła został wybrany nowym papieżem, a dwa lata później sześćdziesiąt pięć państw zbojkotowało igrzyska olimpijskie w Moskwie. W 1980 roku w Stoczni Gdańskiej rozpoczął się strajk, w którym przeciwko systemowi obrócili się robotnicy, intelektualiści czy chłopi. Kilkanaście miesięcy później Wojciech Jaruzelski ogłosił wprowadzenie stanu wojennego.


...( Dane Techniczne )...


Format                      : Matroska
Format version              : Version 4 / Version 2
File size                   : 743 MiB
Duration                    : 52mn 48s
Overall bit rate            : 1 967 Kbps
Encoded date                : UTC 2015-07-12 18:24:43
Writing application         : mkvmerge v7.3.0 ('Nouages&#039 64bit built on Oct 22 2014 18:53:34
Writing library             : libebml v1.3.0 + libmatroska v1.4.1
DURATION                    : 00:52:45.690000000
NUMBER_OF_FRAMES            : 98876
NUMBER_OF_BYTES             : 37968384
_STATISTICS_WRITING_APP     : mkvmerge v7.3.0 ('Nouages&#039 64bit built on Oct 22 2014 18:53:34
_STATISTICS_WRITING_DATE_UT : 2015-07-12 18:24:43
_STATISTICS_TAGS            : BPS DURATION NUMBER_OF_FRAMES NUMBER_OF_BYTES

Video
ID                          : 1
Format                      : AVC
Format/Info                 : Advanced Video Codec
Format profile              : Main@L3
Format settings, CABAC      : Yes
Format settings, ReFrames   : 4 frames
Format settings, GOP        : M=4, N=24
Codec ID                    : V_MPEG4/ISO/AVC
Bit rate                    : 1 672 Kbps
Width                       : 720 pixels
Height                      : 576 pixels
Display aspect ratio        : 16:9
Frame rate mode             : Variable
Original frame rate         : 25.000 fps
Color space                 : YUV
Chroma subsampling          : 4:2:0
Bit depth                   : 8 bits
Scan type                   : Interlaced
Scan order                  : Bottom Field First
Default                     : Yes
Forced                      : No
Color range                 : Limited
Color primaries             : BT.601 PAL
Transfer characteristics    : BT.470 System B, BT.470 System G
Matrix coefficients         : BT.601

Audio #1
ID                          : 2
Format                      : MPEG Audio
Format version              : Version 1
Format profile              : Layer 2
Codec ID                    : A_MPEG/L2
Codec ID/Hint               : MP2
Duration                    : 52mn 48s
Bit rate mode               : Constant
Bit rate                    : 160 Kbps
Channel(s)                  : 2 channels
Sampling rate               : 48.0 KHz
Compression mode            : Lossy
Delay relative to video     : -850ms
Stream size                 : 60.4 MiB (8%)
Language                    : Polish
Default                     : Yes
Forced                      : No

Audio #2
ID                          : 3
Format                      : E-AC-3
Format/Info                 : Audio Coding 3
Format settings, Endianness : Big
Codec ID                    : A_EAC3
Duration                    : 52mn 48s
Bit rate mode               : Constant
Bit rate                    : 96.0 Kbps
Channel(s)                  : 2 channels
Channel positions           : Front: L R
Sampling rate               : 48.0 KHz
Compression mode            : Lossy
Delay relative to video     : -700ms
Stream size                 : 36.3 MiB (5%)
Default                     : No
Forced                      : No


PS/POBRALES --------> SEEDUJ /THX/
Szczegóły torrenta
Hash
ec57c69666e0f46fcf20ea2b5c38d5ddd24864ab
Aktualizacja
07/04/2017 19:57:38 (Kliknij na [uaktualnij] by odświeżyc statystyki seedów i leecherów).
Zobacz również
Komentarze


Brak komentarzy...


Wstecz