Witamy Guest Strona Główna Regulamin Kontakt
User: Hasło:
Stwórz darmowe konto Odzyskiwanie hasła i loginu

Kategorie
 » Wszystkie torrenty
Filmy
 » DVD-R1912  
 » VCD/SVCD75  
 » BluRay/x2644488  
 » DivX/XviD LEKTOR/NAPISY PL57009  
 » DivX/XviD ENG/...19089  
 » RMVB5952  
 » HD783  
 » 3D232  
Seriale
 » Seriale Polskie2868  
 » Seriale Zagraniczne15732  
Dla Dzieci
 » Bajki Pl/Eng1031  
Anime
 » Anime Pl115  
 » Anime1237  
Muzyka
 » Muzyka Polska/Zagraniczna17686  
 » Soundtracki334  
 » Teledyski/Koncerty1959  
Gry
 » Gry PC10375  
 » Gry PS2/PS3/PSP1077  
 » Gry Xbox1159  
 » Gry - Inne Konsole407  
GSM/PDA
 » Tapety GSM/PDA108  
 » Programy GSM/PDA313  
 » Filmy GSM/PDA123  
 » Dzwonki GSM/PDA113  
 » Gry GSM/PDA225  
Książki/Czasopisma
 » E-Booki9160  
 » Audio-Booki1021  
 » Czasopisma877  
 » Komiksy639  
Programy
 » Windows10627  
 » Linux363  
 » Macintosh94  
Inne
 » Tapety2386  
 » Śmieszne72  
 » Sport905  
 » Pozostałe275  
Erotyka
 » Czasopisma111  
 » Zdjęcia 6047  
 » Filmy57681  
 » Gry 66  
 » Hentai+1853  
Archiwum


Wojna o planetę małp-War for the Planet of the Apes 3D (2017)[BRRip 1080p x264 DTS/AC3][Lektor i Napisy PL/Eng/Multi][Eng]

Kategoria: 3D
Wstawił:  Ishimura
Dodano: 20/10/2017
Rozmiar: 15.74 GB
Seedów: 2
Leecherów: 10
Komentarze: 0

https://i.imgur.com/qbdQdFv.jpg

http://www.imdb.com/title/tt3450958/
http://www.filmweb.pl/film/Wojna+o+planet%C4%99+ma%C5%82p-2017-700190

Film w wersji 3D Half Over/Under
Multi Audio (DTS,AC3) i Multi Subtitles w osobnym pliku.
Plik zawiera Sample.

reżyseria: Matt Reeves
scenariusz: Mark BombackMatt Reeves
gatunek: Dramat,Akcja,Sci-Fi
produkcja: USA
premiera: 11-06-2017
muzyka:         Michael Giacchino
zdjęcia:        Michael Seresin
czas:           2 h 20 min

opis:

After the apes suffer unimaginable losses, Caesar wrestles with his darker instincts and begins his own
mythic quest to avenge his kind.

Cezar i jego małpy uwikłane zostają w zbrojny konflikt z armią ludzi, na czele której
stoi bezwzględny Pułkownik. Małpy ponoszą straszliwe straty, podczas gdy Cezar zmaga
się z mrocznymi instynktami i wyrusza w drogę, by pomścić swych pobratymców. Gdy Cezar
i Pułkownik stają twarzą w twarz, dochodzi do spektakularnej bitwy, w której stawką
jest przyszłość obu gatunków i całej naszej planety.

https://i.imgur.com/b9Xsp96.jpg
https://i.imgur.com/TnwDgrV.jpg
https://i.imgur.com/31ORq8D.jpg
https://i.imgur.com/LwuUA6x.jpg

obsada:

Andy Serkis, Woody Harrelson, Steve Zahn

dane techniczne:

multi audio:

https://i.imgur.com/6e1siqD.jpg

War for the Planet of the Apes 3D (2017)-*censored*.mkv
Format                      : Matroska
Format version              : Version 4 / Version 2
File size                   : 8.28 GiB
Duration                    : 2 h 20 min
Overall bit rate            : 8 458 kb/s
Movie name                  : War for the Planet of the Apes 3D (2017)-*censored*
Encoded date                : UTC 2017-10-19 17:17:42
Writing application         : mkvmerge v8.1.0 ('Psychedelic Postcard&#039 64bit
Writing library             : libebml v1.3.1 + libmatroska v1.4.2
Cover                       : Yes
Attachments                 : Cover.jpg

Video
ID                          : 1
Format                      : AVC
Format/Info                 : Advanced Video Codec
Format profile              : High@L4.1
Format settings, CABAC      : Yes
Format settings, RefFrames  : 2 frames
Codec ID                    : V_MPEG4/ISO/AVC
Duration                    : 2 h 20 min
Bit rate                    : 7 439 kb/s
Width                       : 1 920 pixels
Height                      : 800 pixels
Display aspect ratio        : 2.40:1
Frame rate mode             : Constant
Frame rate                  : 23.976 (24000/1001) FPS
Color space                 : YUV
Chroma subsampling          : 4:2:0
Bit depth                   : 8 bits
Scan type                   : Progressive
Bits/(Pixel*Frame)          : 0.202
Stream size                 : 7.28 GiB (88%)
Title                       : War for the Planet of the Apes 3D (2017)-*censored*
Writing library             : x264 core 142
Default                     : Yes
Forced                      : No
Color range                 : Limited
Color primaries             : BT.709
Transfer characteristics    : BT.709
Matrix coefficients         : BT.709

Audio #1
ID                          : 2
Format                      : AC-3
Format/Info                 : Audio Coding 3
Format settings, Endianness : Big
Codec ID                    : A_AC3
Duration                    : 2 h 20 min
Bit rate mode               : Constant
Bit rate                    : 448 kb/s
Channel(s)                  : 6 channels
Channel positions           : Front: L C R, Side: L R, LFE
Sampling rate               : 48.0 kHz
Frame rate                  : 31.250 FPS (1536 SPF)
Bit depth                   : 16 bits
Compression mode            : Lossy
Stream size                 : 449 MiB (5%)
Title                       : War for the Planet of the Apes 3D (2017)-*censored*_AC3
Language                    : Polish
Service kind                : Complete Main
Default                     : Yes
Forced                      : No

Audio #2
ID                          : 3
Format                      : AC-3
Format/Info                 : Audio Coding 3
Format settings, Endianness : Big
Codec ID                    : A_AC3
Duration                    : 2 h 4 min
Bit rate mode               : Constant
Bit rate                    : 640 kb/s
Channel(s)                  : 6 channels
Channel positions           : Front: L C R, Side: L R, LFE
Sampling rate               : 48.0 kHz
Frame rate                  : 31.250 FPS (1536 SPF)
Bit depth                   : 16 bits
Compression mode            : Lossy
Stream size                 : 569 MiB (7%)
Title                       : War for the Planet of the Apes 3D (2017)-*censored*_AC3
Language                    : English
Service kind                : Complete Main
Default                     : No
Forced                      : No

Menu
00:00:00.000                : en01)00:00:00:000
00:05:05.888                : en02)00:05:05:888
00:09:06.712                : en03)00:09:06:712
00:12:14.108                : en04)00:12:14:108
00:18:21.016                : en05)00:18:21:016
00:25:04.503                : en06)00:25:04:503
00:30:17.398                : en07)00:30:17:398
00:34:13.092                : en000:34:13:092
00:37:46.347                : en09)00:37:46:347
00:42:54.446                : en10)00:42:54:446
00:49:31.802                : en11)00:49:31:802
00:54:14.626                : en12)00:54:14:626
00:58:49.817                : en13)00:58:49:817
01:05:24.128                : en14)01:05:24:128
01:10:18.380                : en15)01:10:18:380
01:14:53.822                : en16)01:14:53:822
01:18:59.192                : en17)01:18:59:192
01:25:35.672                : en101:25:35:672
01:29:37.372                : en19)01:29:37:372
01:34:22.823                : en20)01:34:22:823
01:39:27.711                : en21)01:39:27:711
01:43:48.222                : en22)01:43:48:222
01:48:45.393                : en23)01:48:45:393
01:55:20.580                : en24)01:55:20:580
01:58:04.702                : en25)01:58:04:702
02:02:33.929                : en26)02:02:33:929
02:05:54.797                : en27)02:05:54:797
02:12:51.213                : en202:12:51:213
Szczegóły torrenta
Hash
ea92b98db3504ed892deb257aba908ecc528fb71
Aktualizacja
26/12/2017 21:30:17 (Kliknij na [uaktualnij] by odświeżyc statystyki seedów i leecherów).
Zobacz również
Komentarze


Brak komentarzy...


Wstecz