Witamy Guest Strona Główna Regulamin Kontakt
User: Hasło:
Stwórz darmowe konto Odzyskiwanie hasła i loginu

Kategorie
 » Wszystkie torrenty
Filmy
 » DVD-R1854  
 » VCD/SVCD75  
 » BluRay/x2643888  
 » DivX/XviD LEKTOR/NAPISY PL54357  
 » DivX/XviD ENG/...19079  
 » RMVB5947  
 » HD610  
 » 3D182  
Seriale
 » Seriale Polskie2360  
 » Seriale Zagraniczne13058  
Dla Dzieci
 » Bajki Pl/Eng1009  
Anime
 » Anime Pl106  
 » Anime1237  
Muzyka
 » Muzyka Polska/Zagraniczna15681  
 » Soundtracki288  
 » Teledyski/Koncerty1902  
Gry
 » Gry PC9383  
 » Gry PS2/PS3/PSP1072  
 » Gry Xbox1151  
 » Gry - Inne Konsole405  
GSM/PDA
 » Tapety GSM/PDA108  
 » Programy GSM/PDA311  
 » Filmy GSM/PDA122  
 » Dzwonki GSM/PDA111  
 » Gry GSM/PDA224  
Książki/Czasopisma
 » E-Booki9023  
 » Audio-Booki921  
 » Czasopisma855  
 » Komiksy612  
Programy
 » Windows10387  
 » Linux363  
 » Macintosh94  
Inne
 » Tapety2359  
 » Śmieszne72  
 » Sport883  
 » Pozostałe247  
Erotyka
 » Czasopisma110  
 » Zdjęcia 5944  
 » Filmy46286  
 » Gry 65  
 » Hentai+1853  
Archiwum


Wojna i pokój War and Peace *2007* [DVBRip] [XviD AT] [Lektor PL]

Kategoria: Seriale Zagraniczne
Wstawił:  viola62
Dodano: 30/10/2016
Rozmiar: 2.73 GB
Seedów: 0
Leecherów: 0
Komentarze: 0

Pobierz plik
info/


Tytuł: Wojna i pokój | War and Peace
[Odcinków: 4] [Mini Serial TV/2007]
Produkcja: Francja | Niemcy | Polska | Rosja | Włochy
Gatunek: Kostiumowy | Romans | Dramat historyczny
Czas trwania: 39 min.
Premiera: 30.04.2007 - Świat
Epizod: 1 - 4
Reżyseria: Robert Dornhelm
Scenariusz: Enrico Medioli | Lorenzo Favella

http://www.filmweb.pl/serial/Wojna+i+pok%C3%B3j-2007-365307/photos/620577

http://www.filmweb.pl/serial/Wojna+i+pok%C3%B3j-2007-365307/photos/620587

http://www.filmweb.pl/serial/Wojna+i+pok%C3%B3j-2007-365307/photos/620580

opis/



Jest rok 1805. Napoleon przygotowuje się do ataku na Rosję. U Rostowów trwają przygotowania do imienin hrabiny Rostowej i jej córki Nataszy. Podczas balu podana zostaje wiadomość o wybuchu wojny, tymczasem Natasza (Clémence Poésy) poznaje księcia Bołkońskiego (Alessio Boni), adiutanta gen. Kutuzowa... Losy bohaterów przeplatają się między wojną a pokojem.

obsada/



Clémence Poésy ============= Natasza Rostowa
Malcolm McDowell =========== Książę Bołkoński
Alexander Beyer ============ Pierre Bezuchow
Ana Caterina Morariu ======= Sonja
Alessio Boni =============== Książę Andrzej Bołkoński
Violante Placido =========== Helena Kuragin


dane techn/
odcinka/

Format           : AVI
Format/Info         : Audio Video Interleave
File size          : 699 MiB
Duration          : 1h 39mn
Overall bit rate mode    : Variable
Overall bit rate      : 987 Kbps
Writing application     : VirtualDubMod 1.5.10.2 (build 2540/release)
Writing library       : VirtualDubMod build 2540/release

Video
ID             : 0
Format           : MPEG-4 Visual
Format profile       : Advanced Simple@L5
Format settings, BVOP    : 2
Format settings, QPel    : No
Format settings, GMC    : No warppoints
Format settings, Matrix   : Default (H.263)
Muxing mode         : Packed bitstream
Codec ID          : XVID
Codec ID/Hint        : XviD
Duration          : 1h 39mn
Bit rate          : 869 Kbps
Width            : 576 pixels
Height           : 320 pixels
Display aspect ratio    : 16:9
Frame rate         : 25.000 fps
Color space         : YUV
Chroma subsampling     : 4:2:0
Bit depth          : 8 bits
Scan type          : Progressive
Compression mode      : Lossy
Bits/(Pixel*Frame)     : 0.189
Stream size         : 616 MiB (88%)
Writing library       : XviD 1.1.2 (UTC 2006-11-01)

Audio
ID             : 1
Format           : MPEG Audio
Format version       : Version 1
Format profile       : Layer 3
Mode            : Joint stereo
Codec ID          : 55
Codec ID/Hint        : MP3
Duration          : 1h 39mn
Bit rate mode        : Variable
Bit rate          : 105 Kbps
Nominal bit rate      : 112 Kbps
Channel(s)         : 2 channels
Sampling rate        : 44.1 KHz
Compression mode      : Lossy
Stream size         : 74.6 MiB (11%)
Alignment          : Aligned on interleaves
Interleave, duration    : 26 ms (0.65 video frame)
Interleave, preload duratio : 574 ms
Writing library       : LAME3.90.
Encoding settings      : -m j -V 4 -q 2 -lowpass 16 --abr 112


zwiastun / https://www.youtube.com/watch?v=c1ZUFfevgJ4
Szczegóły torrenta
Hash
e8f8506242cb45280780772eda79be532724408f
Główny tracker
http://tracker.devil-Darmowe-ToRenty.pl/announce [EXTERNAL]
Aktualizacja
22/04/2017 13:28:34 (Kliknij na [uaktualnij] by odświeżyc statystyki seedów i leecherów).
Zobacz również
Komentarze


Brak komentarzy...


Wstecz