Witamy Guest Strona Główna Regulamin Kontakt
User: Hasło:
Stwórz darmowe konto Odzyskiwanie hasła i loginu

Kategorie
 » Wszystkie torrenty
Filmy
 » DVD-R1896  
 » VCD/SVCD75  
 » BluRay/x2644201  
 » DivX/XviD LEKTOR/NAPISY PL56425  
 » DivX/XviD ENG/...19083  
 » RMVB5949  
 » HD764  
 » 3D222  
Seriale
 » Seriale Polskie2566  
 » Seriale Zagraniczne14316  
Dla Dzieci
 » Bajki Pl/Eng1030  
Anime
 » Anime Pl115  
 » Anime1237  
Muzyka
 » Muzyka Polska/Zagraniczna16253  
 » Soundtracki296  
 » Teledyski/Koncerty1927  
Gry
 » Gry PC9688  
 » Gry PS2/PS3/PSP1074  
 » Gry Xbox1154  
 » Gry - Inne Konsole407  
GSM/PDA
 » Tapety GSM/PDA108  
 » Programy GSM/PDA313  
 » Filmy GSM/PDA123  
 » Dzwonki GSM/PDA113  
 » Gry GSM/PDA225  
Książki/Czasopisma
 » E-Booki9049  
 » Audio-Booki957  
 » Czasopisma865  
 » Komiksy624  
Programy
 » Windows10580  
 » Linux363  
 » Macintosh94  
Inne
 » Tapety2363  
 » Śmieszne72  
 » Sport900  
 » Pozostałe256  
Erotyka
 » Czasopisma110  
 » Zdjęcia 5979  
 » Filmy47676  
 » Gry 66  
 » Hentai+1853  
Archiwum


Flirt 1995 1080p BluRay x264 DTS FGT

Kategoria: DivX/XviD ENG/...
Wstawił:  ukulele
Dodano: 16/09/2016
Rozmiar: 10.39 GB
Seedów: 0
Leecherów: 1
Komentarze: 0

Pobierz plik









[+] Show MediaInfo
Video
ID                                       : 1
Format                                   : AVC
Format/Info                              : Advanced Video Codec
Format profile                           : High@L4.1
Format settings, CABAC                   : Yes
Format settings, ReFrames                : 4 frames
Codec ID                                 : V_MPEG4/ISO/AVC
Duration                                 : 1h 23mn
Bit rate                                 : 16.6 Mbps
Width                                    : 1 920 pixels
Height                                   : 1 080 pixels
Display aspect ratio                     : 16:9
Frame rate mode                          : Constant
Frame rate                               : 23.976 (24000/1001) fps
Color space                              : YUV
Chroma subsampling                       : 4:2:0
Bit depth                                : 8 bits
Scan type                                : Progressive
Bits/(Pixel*Frame)                       : 0.334
Stream size                              : 9.74 GiB (94%)
Writing library                          : x264 core 142 r2431 ac76440
Encoding settings                        : cabac=1 / ref=4 / deblock=1:-1:-1 / analyse=0x3:0x113 / me=umh / subme=10 / psy=1 / psy_rd=1.00:0.15 / mixed_ref=1 / me_range=32 / chroma_me=1 / trellis=2 / 8x8dct=1 / cqm=0 / deadzone=21,11 / fast_pskip=1 / chroma_qp_offset=-3 / threads=6 / lookahead_threads=1 / sliced_threads=0 / nr=0 / decimate=1 / interlaced=0 / bluray_compat=0 / constrained_intra=0 / bframes=8 / b_pyramid=2 / b_adapt=2 / b_bias=0 / direct=3 / weightb=1 / open_gop=0 / weightp=2 / keyint=230 / keyint_min=23 / scenecut=40 / intra_refresh=0 / rc_lookahead=40 / rc=crf / mbtree=0 / crf=19.0 / qcomp=0.60 / qpmin=0 / qpmax=69 / qpstep=4 / vbv_maxrate=50000 / vbv_bufsize=62500 / crf_max=0.0 / nal_hrd=none / filler=0 / ip_ratio=1.40 / pb_ratio=1.30 / aq=1:1.00
Language                                 : English
Default                                  : Yes
Forced                                   : No

Audio
ID                                       : 2
Format                                   : DTS
Format/Info                              : Digital Theater Systems
Mode                                     : 16
Format settings, Endianness              : Big
Codec ID                                 : A_DTS
Duration                                 : 1h 23mn
Bit rate mode                            : Constant
Bit rate                                 : 768 Kbps
Channel(s)                               : 2 channels
Channel positions                        : Front: L R
Sampling rate                            : 48.0 KHz
Frame rate                               : 93.750 fps (512 spf)
Bit depth                                : 16 bits
Compression mode                         : Lossy
Stream size                              : 461 MiB (4%)
Language                                 : English
Default                                  : Yes
Forced                                   : No

Menu
00:00:00.000                             : :Chapter 01
00:06:52.202                             : :Chapter 02
00:13:28.807                             : :Chapter 03
00:18:29.900                             : :Chapter 04
00:22:06.282                             : :Chapter 05
00:27:08.752                             : :Chapter 06
00:31:54.411                             : :Chapter 07
00:42:19.161                             : :Chapter 08
00:47:19.002                             : :Chapter 09
00:54:05.575                             : :Chapter 10
01:04:00.002                             : :Chapter 11
01:16:22.119                             : :Chapter 12
01:23:51.735                             : :Chapter 13



Szczegóły torrenta
Hash
e828904166fc861d582397117621a85b430e11b7
Aktualizacja
20/06/2017 22:41:40 (Kliknij na [uaktualnij] by odświeżyc statystyki seedów i leecherów).
Zobacz również
Komentarze


Brak komentarzy...


Wstecz