Witamy Guest Strona Główna Regulamin Kontakt
User: Hasło:
Stwórz darmowe konto Odzyskiwanie hasła i loginu

Kategorie
 » Wszystkie torrenty
Filmy
 » DVD-R1829  
 » VCD/SVCD75  
 » BluRay/x2643842  
 » DivX/XviD LEKTOR/NAPISY PL53814  
 » DivX/XviD ENG/...19079  
 » RMVB5947  
 » HD579  
 » 3D180  
Seriale
 » Seriale Polskie2357  
 » Seriale Zagraniczne12771  
Dla Dzieci
 » Bajki Pl/Eng1009  
Anime
 » Anime Pl106  
 » Anime1237  
Muzyka
 » Muzyka Polska/Zagraniczna15604  
 » Soundtracki287  
 » Teledyski/Koncerty1897  
Gry
 » Gry PC9322  
 » Gry PS2/PS3/PSP1072  
 » Gry Xbox1151  
 » Gry - Inne Konsole405  
GSM/PDA
 » Tapety GSM/PDA108  
 » Programy GSM/PDA285  
 » Filmy GSM/PDA122  
 » Dzwonki GSM/PDA111  
 » Gry GSM/PDA220  
Książki/Czasopisma
 » E-Booki9001  
 » Audio-Booki904  
 » Czasopisma848  
 » Komiksy610  
Programy
 » Windows10365  
 » Linux363  
 » Macintosh94  
Inne
 » Tapety2359  
 » Śmieszne72  
 » Sport882  
 » Pozostałe246  
Erotyka
 » Czasopisma107  
 » Zdjęcia 5937  
 » Filmy46033  
 » Gry 65  
 » Hentai+1853  
Archiwum


Król królów King of Kings *(1961)* [DVDRip XviD] [Lektor PL]

Kategoria: DivX/XviD LEKTOR/NAPISY PL
Wstawił:  viola62
Dodano: 03/01/2017
Rozmiar: 1.37 GB
Seedów: 0
Leecherów: 1
Komentarze: 0

Pobierz plik
INFO/


gatunek: Biograficzny, Biblijny, Dramat historyczny,
produkcja: USA,
premiera: 11 października 1961 (świat) 1961-10-11
reżyseria: Nicholas Ray,
scenariusz: Philip Yordan,

http://www.filmweb.pl/film/Kr%C3%B3l+kr%C3%B3l%C3%B3w-1961-99681

https://www.youtube.com/watch?v=DNlzMcOT8P0

http://www.imdb.com/title/tt0055047/?ref_=fn_al_tt_1


OPIS/


Jedna z najbardziej udanych prób przeniesienia na ekran historii życia Jezusa. W tym prawie trzygodzinnym filmie autorzy dosyć szczegółowo przedstawiają wydarzenia opisane w Ewangeliach, zarówno młodość, jak i nauczanie oraz mękę i śmierć Chrystusa na krzyżu. Po zmartwychwstaniu, o obecności Jezusa wśród ludzi widzowie dowiadują się głównie z opowiadań naocznych świadków, co ma potęgować charakterystyczną atmosferę tajemniczości i mistycyzmu. Znakomite zdjęcia i kreacje aktorskie, nominowana do Złotego Globu ścieżka dźwiękowa oraz głos słynnego Orsona Wellesa jako narratora to największe atuty filmu Nicholasa Raya.


OBSADA/


Rip Torn - Judasz
Orson Welles - (narrator)
Harry Guardino - Barabasz
Jeffrey Hunter - Jezus Chrystus
Siobhan McKenna - Maryja
Royal Dano - Piotr


DANE/

Format           : AVI
Format/Info         : Audio Video Interleave
File size          : 1.37 GiB
Duration          : 2h 50mn
Overall bit rate      : 1 145 Kbps
Writing application     : VirtualDubMod 1.5.4.1 (build 2178/release)
Writing library       : VirtualDubMod build 2178/release

Video
ID             : 0
Format           : MPEG-4 Visual
Format profile       : Advanced Simple@L5
Format settings, BVOP    : 1
Format settings, QPel    : No
Format settings, GMC    : No warppoints
Format settings, Matrix   : Custom
Codec ID          : XVID
Codec ID/Hint        : XviD
Duration          : 2h 50mn
Bit rate          : 1 009 Kbps
Width            : 640 pixels
Height           : 320 pixels
Display aspect ratio    : 2.000
Frame rate         : 25.000 fps
Color space         : YUV
Chroma subsampling     : 4:2:0
Bit depth          : 8 bits
Scan type          : Progressive
Compression mode      : Lossy
Bits/(Pixel*Frame)     : 0.197
Stream size         : 1.21 GiB (88%)
Writing library       : XviD 1.2.1 (UTC 2008-12-04)

Audio
ID             : 1
Format           : MPEG Audio
Format version       : Version 1
Format profile       : Layer 3
Mode            : Joint stereo
Mode extension       : MS Stereo
Codec ID          : 55
Codec ID/Hint        : MP3
Duration          : 2h 50mn
Bit rate mode        : Constant
Bit rate          : 128 Kbps
Channel(s)         : 2 channels
Sampling rate        : 48.0 KHz
Compression mode      : Lossy
Stream size         : 157 MiB (11%)
Alignment          : Aligned on interleaves
Interleave, duration    : 80 ms (2.00 video frames)
Interleave, preload duratio : 504 ms
Writing library       : LAME3.98r
Encoding settings      : -m j -V 4 -q 2 -lowpass 17 -b 128
Language          : Polish

PS/ POBRALES ------> SEEDUJ /THX/
Szczegóły torrenta
Hash
e1ccc284541af8140ccdef035bdea6df2d6d6d55
Główny tracker
http://tracker.devil-Darmowe-ToRenty.pl/announce [EXTERNAL]
Aktualizacja
30/04/2017 18:32:14 (Kliknij na [uaktualnij] by odświeżyc statystyki seedów i leecherów).
Zobacz również
Komentarze


Brak komentarzy...


Wstecz