Witamy Guest Strona Główna Regulamin Kontakt
User: Hasło:
Stwórz darmowe konto Odzyskiwanie hasła i loginu

Kategorie
 » Wszystkie torrenty
Filmy
 » DVD-R1905  
 » VCD/SVCD75  
 » BluRay/x2644436  
 » DivX/XviD LEKTOR/NAPISY PL56830  
 » DivX/XviD ENG/...19086  
 » RMVB5952  
 » HD777  
 » 3D232  
Seriale
 » Seriale Polskie2695  
 » Seriale Zagraniczne14820  
Dla Dzieci
 » Bajki Pl/Eng1031  
Anime
 » Anime Pl115  
 » Anime1237  
Muzyka
 » Muzyka Polska/Zagraniczna17404  
 » Soundtracki330  
 » Teledyski/Koncerty1955  
Gry
 » Gry PC10299  
 » Gry PS2/PS3/PSP1076  
 » Gry Xbox1159  
 » Gry - Inne Konsole407  
GSM/PDA
 » Tapety GSM/PDA108  
 » Programy GSM/PDA313  
 » Filmy GSM/PDA123  
 » Dzwonki GSM/PDA113  
 » Gry GSM/PDA225  
Książki/Czasopisma
 » E-Booki9134  
 » Audio-Booki1008  
 » Czasopisma875  
 » Komiksy636  
Programy
 » Windows10621  
 » Linux363  
 » Macintosh94  
Inne
 » Tapety2386  
 » Śmieszne72  
 » Sport905  
 » Pozostałe275  
Erotyka
 » Czasopisma111  
 » Zdjęcia 6011  
 » Filmy51105  
 » Gry 66  
 » Hentai+1853  
Archiwum


Syn Boży Son of God *2014* [DVDRip XviD] [Lektor PL]

Kategoria: DivX/XviD LEKTOR/NAPISY PL
Wstawił:  viola62
Dodano: 05/01/2017
Rozmiar: 700.92 MB
Seedów: 1
Leecherów: 1
Komentarze: 0

INFO/



gatunek: Dramat biblijny
produkcja: USA
premiera: 4 kwietnia 2014 (Polska) 27 lutego 2014 (świat)
reżyseria: Christopher Spencer
scenariusz: Richard Bedser,Christopher Spencer,Colin Swash,Nic Young
muzyka:     Lorne Balfe,Hans Zimmer
zdjęcia:    Rob Goldie

http://www.filmweb.pl/film/Syn+Bo%C5%BCy-2014-695451

http://www.imdb.com/title/tt3210686/?ref_=fn_al_tt_1


OPIS/


Nowa ekranizacja najsłynniejszej historii świata ukazuje całe życie Chrystusa – od narodzin przez Jego nauczanie, ukrzyżowanie aż po zmartwychwstanie. W poruszającym kinowym obrazie nakręconym z epickim rozmachem przez twórców bijącego rekordy popularności serialu "Biblia" w tytułowej roli będziemy podziwiać portugalskiego aktora Diogo Morgado, a jako Marię pamiętną z dwukrotnie nominowanej do Złotego Globu roli w "Dotyku anioła" Romę Downey.

OBSADA/



Diogo Morgado .......... Jezus Chrystus
Roma Downey ............ Maria, matka Jezusa
Amber Rose Revah ....... Maria Magdalena
Greg Hicks ............. Piłat
Adrian Schiller ........ Kajfasz
Darwin Shaw ............ Piotr
Sebastian Knapp ........ Jan
Joe Wredden ............ Judasz



DANE/

Format           : AVI
Format/Info         : Audio Video Interleave
File size          : 700 MiB
Duration          : 2h 17mn
Overall bit rate      : 712 Kbps
Writing application     : VirtualDubMod 1.5.10.2 (build 2542/release)
Writing library       : VirtualDubMod build 2542/release

Video
ID             : 0
Format           : MPEG-4 Visual
Format profile       : Advanced Simple@L5
Format settings, BVOP    : 1
Format settings, QPel    : No
Format settings, GMC    : No warppoints
Format settings, Matrix   : Default (H.263)
Muxing mode         : Packed bitstream
Codec ID          : XVID
Codec ID/Hint        : XviD
Duration          : 2h 17mn
Bit rate          : 590 Kbps
Width            : 608 pixels
Height           : 256 pixels
Display aspect ratio    : 2.40:1
Frame rate         : 23.976 fps
Color space         : YUV
Chroma subsampling     : 4:2:0
Bit depth          : 8 bits
Scan type          : Progressive
Compression mode      : Lossy
Bits/(Pixel*Frame)     : 0.158
Stream size         : 581 MiB (83%)
Writing library       : XviD 64

Audio
ID             : 1
Format           : MPEG Audio
Format version       : Version 1
Format profile       : Layer 3
Mode            : Joint stereo
Mode extension       : MS Stereo
Codec ID          : 55
Codec ID/Hint        : MP3
Duration          : 2h 17mn
Bit rate mode        : Constant
Bit rate          : 112 Kbps
Channel(s)         : 2 channels
Sampling rate        : 44.1 KHz
Compression mode      : Lossy
Stream size         : 110 MiB (16%)
Alignment          : Split accross interleaves
Interleave, duration    : 42 ms (1.00 video frame)
Interleave, preload duratio : 500 ms
Writing library       : LAME3.99r
Encoding settings      : -m j -V 4 -q 2 -lowpass 15.6 -b 112

PS/ POBRALES --------> SEEDUJ /THX/
Szczegóły torrenta
Hash
df58a5ca1a0db3aeae599a4f6ebfd55f7736b839
Aktualizacja
17/09/2017 09:04:14 (Kliknij na [uaktualnij] by odświeżyc statystyki seedów i leecherów).
Zobacz również
Komentarze


Brak komentarzy...


Wstecz