Witamy Guest Strona Główna Regulamin Kontakt
User: Hasło:
Stwórz darmowe konto Odzyskiwanie hasła i loginu

Kategorie
 » Wszystkie torrenty
Filmy
 » DVD-R1826  
 » VCD/SVCD74  
 » BluRay/x2643726  
 » DivX/XviD LEKTOR/NAPISY PL52796  
 » DivX/XviD ENG/...19078  
 » RMVB5947  
 » HD543  
 » 3D155  
Seriale
 » Seriale Polskie2290  
 » Seriale Zagraniczne12094  
Dla Dzieci
 » Bajki Pl/Eng1000  
Anime
 » Anime Pl105  
 » Anime1237  
Muzyka
 » Muzyka Polska/Zagraniczna15530  
 » Soundtracki284  
 » Teledyski/Koncerty1891  
Gry
 » Gry PC9251  
 » Gry PS2/PS3/PSP1072  
 » Gry Xbox1151  
 » Gry - Inne Konsole405  
GSM/PDA
 » Tapety GSM/PDA108  
 » Programy GSM/PDA285  
 » Filmy GSM/PDA122  
 » Dzwonki GSM/PDA111  
 » Gry GSM/PDA220  
Książki/Czasopisma
 » E-Booki8973  
 » Audio-Booki841  
 » Czasopisma847  
 » Komiksy610  
Programy
 » Windows10306  
 » Linux363  
 » Macintosh94  
Inne
 » Tapety2357  
 » Śmieszne72  
 » Sport881  
 » Pozostałe246  
Erotyka
 » Czasopisma107  
 » Zdjęcia 5935  
 » Filmy45624  
 » Gry 65  
 » Hentai+1853  
Archiwum


NBA (01 01 2016) New York Knicks at Chicago Bulls [720p H264 30fps AAC] [ENG]

Kategoria: Sport
Wstawił:  Bezzol
Dodano: 04/01/2016
Rozmiar: 1.92 GB
Seedów: 0
Leecherów: 0
Komentarze: 0

Pobierz plik
Format : Matroska
Format version : Version 4 / Version 2
File size : 1.92 GiB
Duration : 1h 34mn
Overall bit rate : 2 918 Kbps
Encoded date : UTC 2016-01-02 10:16:21
Writing application : mkvmerge v7.9.0 ('Birds&#039 32bit
Writing library : libebml v1.3.1 + libmatroska v1.4.2

Video
ID : 1
Format : AVC
Format/Info : Advanced Video Codec
Format profile : Main@L3.2
Format settings, CABAC : Yes
Format settings, ReFrames : 3 frames
Codec ID : V_MPEG4/ISO/AVC
Duration : 1h 34mn
Bit rate : 2 789 Kbps
Width : 1 280 pixels
Height : 720 pixels
Display aspect ratio : 16:9
Frame rate mode : Constant
Frame rate : 29.970 (30000/1001) fps
Original frame rate : 29.970 (29970/1000) fps
Color space : YUV
Chroma subsampling : 4:2:0
Bit depth : 8 bits
Scan type : Progressive
Bits/(Pixel*Frame) : 0.101
Stream size : 1.83 GiB (96%)
Default : Yes
Forced : No

Audio
ID : 2
Format : AAC
Format/Info : Advanced Audio Codec
Format profile : LC
Codec ID : A_AAC
Duration : 1h 34mn
Bit rate : 126 Kbps
Channel(s) : 2 channels
Channel positions : Front: L R
Sampling rate : 44.1 KHz
Frame rate : 43.066 fps (1024 spf)
Compression mode : Lossy
Delay relative to video : 21ms
Stream size : 84.4 MiB (4%)
Default : Yes
Forced : No
Szczegóły torrenta
Hash
df0ef963729ad17c0d9bb1a95dc5d69bb12711a6
Główny tracker
udp://tracker.coppersurfer.tk:6969/announce [EXTERNAL]
Aktualizacja
23/06/2016 09:01:39 (Kliknij na [uaktualnij] by odświeżyc statystyki seedów i leecherów).
Zobacz również
Komentarze


Brak komentarzy...


Wstecz