Witamy Guest Strona Główna Regulamin Kontakt
User: Hasło:
Stwórz darmowe konto Odzyskiwanie hasła i loginu

Kategorie
 » Wszystkie torrenty
Filmy
 » DVD-R1896  
 » VCD/SVCD75  
 » BluRay/x2644209  
 » DivX/XviD LEKTOR/NAPISY PL56434  
 » DivX/XviD ENG/...19083  
 » RMVB5949  
 » HD766  
 » 3D222  
Seriale
 » Seriale Polskie2566  
 » Seriale Zagraniczne14321  
Dla Dzieci
 » Bajki Pl/Eng1030  
Anime
 » Anime Pl115  
 » Anime1237  
Muzyka
 » Muzyka Polska/Zagraniczna16285  
 » Soundtracki298  
 » Teledyski/Koncerty1927  
Gry
 » Gry PC9693  
 » Gry PS2/PS3/PSP1074  
 » Gry Xbox1154  
 » Gry - Inne Konsole407  
GSM/PDA
 » Tapety GSM/PDA108  
 » Programy GSM/PDA313  
 » Filmy GSM/PDA123  
 » Dzwonki GSM/PDA113  
 » Gry GSM/PDA225  
Książki/Czasopisma
 » E-Booki9049  
 » Audio-Booki957  
 » Czasopisma865  
 » Komiksy624  
Programy
 » Windows10583  
 » Linux363  
 » Macintosh94  
Inne
 » Tapety2363  
 » Śmieszne72  
 » Sport900  
 » Pozostałe256  
Erotyka
 » Czasopisma110  
 » Zdjęcia 5979  
 » Filmy47679  
 » Gry 66  
 » Hentai+1853  
Archiwum


The Lucky Ones 2008 1080p WEBRip DD5 1 x264 monkee

Kategoria: DivX/XviD ENG/...
Wstawił:  ukulele
Dodano: 16/09/2016
Rozmiar: 7.98 GB
Seedów: 0
Leecherów: 3
Komentarze: 0

Pobierz plik









[+] Show MediaInfo
Video
ID                                       : 1
Format                                   : AVC
Format/Info                              : Advanced Video Codec
Format profile                           : High@L4
Format settings, CABAC                   : Yes
Format settings, ReFrames                : 4 frames
Codec ID                                 : V_MPEG4/ISO/AVC
Duration                                 : 1h 53mn
Bit rate mode                            : Constant
Bit rate                                 : 10 000 Kbps
Width                                    : 1 920 pixels
Height                                   : 1 080 pixels
Display aspect ratio                     : 16:9
Frame rate mode                          : Constant
Frame rate                               : 23.976 (24000/1001) fps
Color space                              : YUV
Chroma subsampling                       : 4:2:0
Bit depth                                : 8 bits
Scan type                                : Progressive
Bits/(Pixel*Frame)                       : 0.201
Stream size                              : 7.78 GiB (97%)
Title                                    : The Lucky Ones bB00ITH9NHCB b1080pB
Default                                  : Yes
Forced                                   : No
Color range                              : Limited
Color primaries                          : BT.709
Transfer characteristics                 : BT.709
Matrix coefficients                      : BT.709

Audio
ID                                       : 2
Format                                   : E-AC-3
Format/Info                              : Audio Coding 3
Format settings, Endianness              : Big
Codec ID                                 : A_EAC3
Duration                                 : 1h 53mn
Bit rate mode                            : Constant
Bit rate                                 : 256 Kbps
Channel(s)                               : 6 channels
Channel positions                        : Front: L C R, Side: L R, LFE
Sampling rate                            : 48.0 KHz
Frame rate                               : 187.500 fps (256 spf)
Compression mode                         : Lossy
Stream size                              : 207 MiB (3%)
Title                                    : English
Language                                 : English
Default                                  : Yes
Forced                                   : No

Text
ID                                       : 3
Format                                   : UTF-8
Codec ID                                 : S_TEXT/UTF8
Codec ID/Info                            : UTF-8 Plain Text
Duration                                 : 1h 49mn
Bit rate                                 : 60 bps
Count of elements                        : 1952
Stream size                              : 48.2 KiB (0%)
Title                                    : English
Language                                 : English
Default                                  : No
Forced                                   : No



Szczegóły torrenta
Hash
deb71522d396f80284b26d427ed7cc4bf31ddfb3
Aktualizacja
16/04/2017 17:22:46 (Kliknij na [uaktualnij] by odświeżyc statystyki seedów i leecherów).
Zobacz również
Komentarze


Brak komentarzy...


Wstecz