Witamy Guest Strona Główna Regulamin Kontakt
User: Hasło:
Stwórz darmowe konto Odzyskiwanie hasła i loginu

Kategorie
 » Wszystkie torrenty
Filmy
 » DVD-R1896  
 » VCD/SVCD75  
 » BluRay/x2644209  
 » DivX/XviD LEKTOR/NAPISY PL56434  
 » DivX/XviD ENG/...19083  
 » RMVB5949  
 » HD766  
 » 3D222  
Seriale
 » Seriale Polskie2566  
 » Seriale Zagraniczne14321  
Dla Dzieci
 » Bajki Pl/Eng1030  
Anime
 » Anime Pl115  
 » Anime1237  
Muzyka
 » Muzyka Polska/Zagraniczna16285  
 » Soundtracki298  
 » Teledyski/Koncerty1927  
Gry
 » Gry PC9693  
 » Gry PS2/PS3/PSP1074  
 » Gry Xbox1154  
 » Gry - Inne Konsole407  
GSM/PDA
 » Tapety GSM/PDA108  
 » Programy GSM/PDA313  
 » Filmy GSM/PDA123  
 » Dzwonki GSM/PDA113  
 » Gry GSM/PDA225  
Książki/Czasopisma
 » E-Booki9049  
 » Audio-Booki957  
 » Czasopisma865  
 » Komiksy624  
Programy
 » Windows10583  
 » Linux363  
 » Macintosh94  
Inne
 » Tapety2363  
 » Śmieszne72  
 » Sport900  
 » Pozostałe256  
Erotyka
 » Czasopisma110  
 » Zdjęcia 5979  
 » Filmy47679  
 » Gry 66  
 » Hentai+1853  
Archiwum


Wild Card 2015 EXTENDED 1080p BluRay x264 DTS FGT

Kategoria: DivX/XviD ENG/...
Wstawił:  ukulele
Dodano: 16/09/2016
Rozmiar: 6.91 GB
Seedów: 2
Leecherów: 2
Komentarze: 0

Pobierz plik









[+] Show MediaInfo
Video
ID                                       : 1
Format                                   : AVC
Format/Info                              : Advanced Video Codec
Format profile                           : High@L4.1
Format settings, CABAC                   : Yes
Format settings, ReFrames                : 5 frames
Codec ID                                 : V_MPEG4/ISO/AVC
Duration                                 : 1h 43mn
Bit rate                                 : 7 862 Kbps
Width                                    : 1 920 pixels
Height                                   : 800 pixels
Display aspect ratio                     : 2.40:1
Frame rate mode                          : Constant
Frame rate                               : 23.976 (24000/1001) fps
Color space                              : YUV
Chroma subsampling                       : 4:2:0
Bit depth                                : 8 bits
Scan type                                : Progressive
Bits/(Pixel*Frame)                       : 0.213
Stream size                              : 5.68 GiB (82%)
Writing library                          : x264 core 148 r2638 7599210
Encoding settings                        : cabac=1 / ref=5 / deblock=1:-1:-1 / analyse=0x3:0x113 / me=hex / subme=7 / psy=1 / psy_rd=0.99:0.01 / mixed_ref=1 / me_range=16 / chroma_me=1 / trellis=1 / 8x8dct=1 / cqm=0 / deadzone=21,11 / fast_pskip=0 / chroma_qp_offset=-3 / threads=12 / lookahead_threads=2 / sliced_threads=0 / nr=0 / decimate=1 / interlaced=0 / bluray_compat=0 / constrained_intra=0 / bframes=3 / b_pyramid=2 / b_adapt=2 / b_bias=0 / direct=3 / weightb=1 / open_gop=0 / weightp=2 / keyint=240 / keyint_min=23 / scenecut=40 / intra_refresh=0 / rc_lookahead=40 / rc=crf / mbtree=1 / crf=18.0 / qcomp=0.60 / qpmin=0 / qpmax=69 / qpstep=4 / vbv_maxrate=62500 / vbv_bufsize=78125 / crf_max=0.0 / nal_hrd=none / filler=0 / ip_ratio=1.40 / aq=1:1.00
Language                                 : English
Default                                  : Yes
Forced                                   : No

Audio
ID                                       : 2
Format                                   : DTS
Format/Info                              : Digital Theater Systems
Mode                                     : 16
Format settings, Endianness              : Big
Codec ID                                 : A_DTS
Duration                                 : 1h 43mn
Bit rate mode                            : Constant
Bit rate                                 : 1 509 Kbps
Channel(s)                               : 6 channels
Channel positions                        : Front: L C R, Side: L R, LFE
Sampling rate                            : 48.0 KHz
Frame rate                               : 93.750 fps (512 spf)
Bit depth                                : 24 bits
Compression mode                         : Lossy
Stream size                              : 1.09 GiB (16%)
Language                                 : English
Default                                  : Yes
Forced                                   : No

Menu
00:00:00.000                             : en:00:00:00.000
00:16:35.703                             : en:00:16:35.703
00:28:30.375                             : en:00:28:30.375
00:40:04.986                             : en:00:40:04.986
00:50:53.050                             : en:00:50:53.050
01:02:28.745                             : en:01:02:28.745
01:11:45.885                             : en:01:11:45.885
01:27:11.476                             : en:01:27:11.476
01:36:33.079                             : en:01:36:33.079



Szczegóły torrenta
Hash
da82bf896b6faf299e9ce6f2d79578374452620a
Aktualizacja
20/07/2017 20:23:57 (Kliknij na [uaktualnij] by odświeżyc statystyki seedów i leecherów).
Zobacz również
Komentarze


Brak komentarzy...


Wstecz