Witamy Guest Strona Główna Regulamin Kontakt
User: Hasło:
Stwórz darmowe konto Odzyskiwanie hasła i loginu

Kategorie
 » Wszystkie torrenty
Filmy
 » DVD-R1893  
 » VCD/SVCD75  
 » BluRay/x2644175  
 » DivX/XviD LEKTOR/NAPISY PL56212  
 » DivX/XviD ENG/...19082  
 » RMVB5949  
 » HD749  
 » 3D218  
Seriale
 » Seriale Polskie2491  
 » Seriale Zagraniczne14022  
Dla Dzieci
 » Bajki Pl/Eng1029  
Anime
 » Anime Pl115  
 » Anime1237  
Muzyka
 » Muzyka Polska/Zagraniczna16049  
 » Soundtracki294  
 » Teledyski/Koncerty1924  
Gry
 » Gry PC9614  
 » Gry PS2/PS3/PSP1073  
 » Gry Xbox1153  
 » Gry - Inne Konsole407  
GSM/PDA
 » Tapety GSM/PDA108  
 » Programy GSM/PDA313  
 » Filmy GSM/PDA123  
 » Dzwonki GSM/PDA113  
 » Gry GSM/PDA225  
Książki/Czasopisma
 » E-Booki9044  
 » Audio-Booki956  
 » Czasopisma863  
 » Komiksy623  
Programy
 » Windows10553  
 » Linux363  
 » Macintosh94  
Inne
 » Tapety2362  
 » Śmieszne72  
 » Sport899  
 » Pozostałe255  
Erotyka
 » Czasopisma110  
 » Zdjęcia 5971  
 » Filmy47388  
 » Gry 65  
 » Hentai+1853  
Archiwum


Star Trek: W nieznane 3D Star Trek Beyond *2016* [mini HD 1080p 3D Half Over Under AC3 PLSUBBED BluRay x264 SONDA] [ENG]

Kategoria: 3D
Wstawił:  Sonda
Dodano: 29/10/2016
Rozmiar: 3.96 GB
Seedów: 4
Leecherów: 2
Komentarze: 0

Pobierz plik


Film w wersji 3D Half Over-Under.
Do odtworzenia filmu WYMAGANY odpowiedni sprzęt (TV 3D)
===========================================
UWAGA: Napisy na stałe wtopione w film. Zapraszam wszystkich chętnych !!!!!!!
=====================================================

Kopia mini-HD 1080p = 3,95 GB

gatunek: Akcja,Sci-Fi
produkcja: USA
premiera: 22 lipca 2016 (Polska) 20 lipca 2016 (świat)
reżyseria: Justin Lin
scenariusz: Simon Pegg,Doug Jung,Roberto Orci,John D. Payne,Patrick McKay

http://www.imdb.com/title/tt2660888/

Obsada:

Chris Pine ... Kapitan James T. Kirk
Zachary Quinto ... Komandor Spock
Karl Urban ... Doktor "Bones" McCoy
Zoe Saldana ... Porucznik Uhura
Simon Pegg ... Montgomery "Scotty" Scott
Sofia Boutella ... Jaylah

Opis:

Kolejna odsłona kultowej serii, która wrosła w popkulturę, co więcej - współtworzyła ją. Twórcy ponownie zabiorą nas w emocjonującą międzygalaktyczną podróż. Wspólnie z bohaterami filmu znów będziemy "śmiało kroczyć tam, gdzie nie dotarł jeszcze żaden człowiek". Za reżyserię filmu odpowiada Justin Lin, twórca czterech części "Szybkich i wściekłych".

Storyline:

After docking at Starbase Yorktown, the USS Enterprise, halfway into their five-year mission, ventures into new dangerous uncharted territory. There, the Enterprise is destroyed by a new ruthless enemy with a deep hatred of the Federation, and strands Kirk and his crew on a remote planet with no means of communication. Kirk must then work with the elements to reunite his crew and get back to save Starbase Yorktown from this dangerous menace.

Screenshot:







Dane techniczne:

General
Format                                   : Matroska
Format version                           : Version 2
File size                                : 3.96 GiB
Duration                                 : 2h 2mn
Overall bit rate                         : 4 630 Kbps
Movie name                               : Star.Trek.Beyond.3D.2016.PLSUBBED.HOU.BDRip.1080p.Sonda
Encoded date                             : UTC 2016-10-27 16:59:56
Writing application                      : mkvmerge v5.7.0 ('The Whirlwind&#039 built on Jul  8 2012 20:08:51
Writing library                          : libebml v1.2.3 + libmatroska v1.3.0

Video
ID                                       : 1
Format                                   : AVC
Format/Info                              : Advanced Video Codec
Format profile                           : High@L4.1
Format settings, CABAC                   : Yes
Format settings, ReFrames                : 4 frames
Codec ID                                 : V_MPEG4/ISO/AVC
Duration                                 : 2h 2mn
Bit rate                                 : 4 180 Kbps
Width                                    : 1 920 pixels
Height                                   : 1 080 pixels
Display aspect ratio                     : 16:9 (2.39:1)
Frame rate mode                          : Constant
Frame rate                               : 23.976 fps
Color space                              : YUV
Chroma subsampling                       : 4:2:0
Bit depth                                : 8 bits
Scan type                                : Progressive
Bits/(Pixel*Frame)                       : 0.084
Stream size                              : 3.50 GiB (88%)
Title                                    : PLSUBBED Rip by Sonda
Writing library                          : x264 core 148 r2638 7599210
Encoding settings                        : cabac=1 / ref=4 / deblock=1:-1:-1 / rc=2pass
Default                                  : Yes
Forced                                   : No

Audio
ID                                       : 2
Format                                   : AC-3
Format/Info                              : Audio Coding 3
Mode extension                           : CM (complete main)
Format settings, Endianness              : Big
Codec ID                                 : A_AC3
Duration                                 : 2h 2mn
Bit rate mode                            : Constant
Bit rate                                 : 448 Kbps
Channel count                            : 6 channels
Channel positions                        : Front: L C R, Side: L R, LFE
Sampling rate                            : 48.0 KHz
Bit depth                                : 16 bits
Compression mode                         : Lossy
Stream size                              : 392 MiB (10%)
Title                                    : AC3 5.1 ENG
Language                                 : English
Default                                  : Yes
Forced                                   : No

Source:
A/V-Star Trek Beyond (2016) 1080p [2D/3D] BD-Remux-HDCLUB
Thanks - Sonda
Szczegóły torrenta
Hash
cf2a2c07c6bd5fadb168dbe2942b249c4989c846
Główny tracker
http://pow7.com:80/announce [EXTERNAL]
Aktualizacja
06/06/2017 18:30:35 (Kliknij na [uaktualnij] by odświeżyc statystyki seedów i leecherów).
Zobacz również
Komentarze


Brak komentarzy...


Wstecz