Witamy Guest Strona Główna Regulamin Kontakt
User: Hasło:
Stwórz darmowe konto Odzyskiwanie hasła i loginu

Kategorie
 » Wszystkie torrenty
Filmy
 » DVD-R1829  
 » VCD/SVCD75  
 » BluRay/x2643842  
 » DivX/XviD LEKTOR/NAPISY PL53814  
 » DivX/XviD ENG/...19079  
 » RMVB5947  
 » HD579  
 » 3D180  
Seriale
 » Seriale Polskie2357  
 » Seriale Zagraniczne12771  
Dla Dzieci
 » Bajki Pl/Eng1009  
Anime
 » Anime Pl106  
 » Anime1237  
Muzyka
 » Muzyka Polska/Zagraniczna15604  
 » Soundtracki287  
 » Teledyski/Koncerty1897  
Gry
 » Gry PC9322  
 » Gry PS2/PS3/PSP1072  
 » Gry Xbox1151  
 » Gry - Inne Konsole405  
GSM/PDA
 » Tapety GSM/PDA108  
 » Programy GSM/PDA285  
 » Filmy GSM/PDA122  
 » Dzwonki GSM/PDA111  
 » Gry GSM/PDA220  
Książki/Czasopisma
 » E-Booki9001  
 » Audio-Booki904  
 » Czasopisma848  
 » Komiksy610  
Programy
 » Windows10365  
 » Linux363  
 » Macintosh94  
Inne
 » Tapety2359  
 » Śmieszne72  
 » Sport882  
 » Pozostałe246  
Erotyka
 » Czasopisma107  
 » Zdjęcia 5937  
 » Filmy46033  
 » Gry 65  
 » Hentai+1853  
Archiwum


Weekend z mistrzem Weekend of a Champion *1972 * [TVRip H264] [Lektor PL]

Kategoria: DivX/XviD LEKTOR/NAPISY PL
Wstawił:  viola62
Dodano: 05/01/2017
Rozmiar: 512.92 MB
Seedów: 0
Leecherów: 0
Komentarze: 0

Pobierz plik
INFO/


Reżyseria: Frank Simon,Roman Polański
Scenariusz: Frank Simon
Gatunek: Dokumentalny
Produkcja: Wielka Brytania
Premiera: Czerwiec 1972 (świat)

http://www.filmweb.pl/film/Weekend+z+mistrzem-1972-198042

http://www.imdb.com/title/tt0068178/?ref_=nv_sr_1


OPIS/


W 1971 roku Roman Polański spędził weekend na torze Formuły 1 w Monaco w towarzystwie Jackie Stewarta i jego żony Helen. Zaprzyjaźnionemu z rajdowym kierowcą reżyserowi udało się sportretować go podczas szczęśliwego dla niego wyścigu o Grand Prix Monaco. Odniesione wówczas zwycięstwo przyczyniło się do zdobycia przez Stewarta drugiego w karierze tytułu Mistrza Świata. 40 lat po tym wydarzeniu film został odrestaurowany i uzupełniony o nowe, zrealizowane współcześnie sceny z udziałem uczestników tamtych wydarzeń.


OBSADA/


Roman Polański
Jackie Stewart
Helen Stewart
Joan Collins
Graham Hill
Ringo Starr

DANE/



Format           : AVI
Format/Info         : Audio Video Interleave
File size          : 512 MiB
Duration          : 1h 29mn
Overall bit rate      : 797 Kbps
Writing application     : Lavf52.105.0

Video
ID             : 0
Format           : AVC
Format/Info         : Advanced Video Codec
Format profile       : High@L2.2
Format settings, CABAC   : Yes
Format settings, ReFrames  : 3 frames
Codec ID          : H264
Duration          : 1h 29mn
Bit rate          : 658 Kbps
Width            : 640 pixels
Height           : 360 pixels
Display aspect ratio    : 16:9
Frame rate mode       : Variable
Frame rate         : 15.000 fps
Color space         : YUV
Chroma subsampling     : 4:2:0
Bit depth          : 8 bits
Scan type          : Progressive
Bits/(Pixel*Frame)     : 0.190
Stream size         : 423 MiB (83%)
Writing library       : x264 core 115
Encoding settings      : cabac=1 / ref=3 / deblock=1:0:0 / analyse=0x3:0x113 / me=hex / subme=7 / psy=1 / psy_rd=1.00:0.00 / mixed_ref=1 / me_range=16 / chroma_me=1 / trellis=1 / 8x8dct=1 / cqm=0 / deadzone=21,11 / fast_pskip=1 / chroma_qp_offset=-4 / threads=1 / sliced_threads=0 / nr=0 / decimate=1 / interlaced=0 / bluray_compat=0 / constrained_intra=0 / bframes=0 / weightp=2 / keyint=250 / keyint_min=25 / scenecut=40 / intra_refresh=0 / rc=crf / mbtree=0 / crf=23.0 / qcomp=0.60 / qpmin=0 / qpmax=69 / qpstep=4 / ip_ratio=1.40 / aq=1:1.00

Audio
ID             : 1
Format           : MPEG Audio
Format version       : Version 1
Format profile       : Layer 3
Mode            : Joint stereo
Codec ID          : 55
Codec ID/Hint        : MP3
Duration          : 1h 29mn
Bit rate mode        : Constant
Bit rate          : 128 Kbps
Channel(s)         : 2 channels
Sampling rate        : 44.1 KHz
Compression mode      : Lossy
Stream size         : 82.3 MiB (16%)
Alignment          : Aligned on interleaves
Interleave, duration    : 26 ms (0.39 video frame)
Interleave, preload duratio : 470 ms
Writing library       : LAME3.97

PS/ POBRALES --------> SEEDUJ /THX/
Szczegóły torrenta
Hash
ce5e1b43eca45cff636e29dda876200ee69f272a
Główny tracker
http://tracker.devil-Darmowe-ToRenty.pl/announce [EXTERNAL]
Aktualizacja
16/04/2017 09:50:25 (Kliknij na [uaktualnij] by odświeżyc statystyki seedów i leecherów).
Zobacz również
Komentarze


Brak komentarzy...


Wstecz