Witamy Guest Strona Główna Regulamin Kontakt
User: Hasło:
Stwórz darmowe konto Odzyskiwanie hasła i loginu

Kategorie
 » Wszystkie torrenty
Filmy
 » DVD-R1826  
 » VCD/SVCD74  
 » BluRay/x2643725  
 » DivX/XviD LEKTOR/NAPISY PL52804  
 » DivX/XviD ENG/...19080  
 » RMVB5947  
 » HD543  
 » 3D155  
Seriale
 » Seriale Polskie2294  
 » Seriale Zagraniczne12094  
Dla Dzieci
 » Bajki Pl/Eng1001  
Anime
 » Anime Pl105  
 » Anime1237  
Muzyka
 » Muzyka Polska/Zagraniczna15530  
 » Soundtracki284  
 » Teledyski/Koncerty1891  
Gry
 » Gry PC9256  
 » Gry PS2/PS3/PSP1072  
 » Gry Xbox1151  
 » Gry - Inne Konsole405  
GSM/PDA
 » Tapety GSM/PDA108  
 » Programy GSM/PDA285  
 » Filmy GSM/PDA122  
 » Dzwonki GSM/PDA111  
 » Gry GSM/PDA220  
Książki/Czasopisma
 » E-Booki8973  
 » Audio-Booki839  
 » Czasopisma847  
 » Komiksy610  
Programy
 » Windows10309  
 » Linux363  
 » Macintosh94  
Inne
 » Tapety2357  
 » Śmieszne72  
 » Sport881  
 » Pozostałe246  
Erotyka
 » Czasopisma107  
 » Zdjęcia 5935  
 » Filmy45581  
 » Gry 65  
 » Hentai+1853  
Archiwum


Księżniczka Łabędzi 2 Tajemnica zamku *1997* [DVDRip XviD] [Dubbing PL]

Kategoria: Bajki Pl/Eng
Wstawił:  viola62
Data: 11/01/2017
Rozmiar: 699.25 MB
Seedów: 1
Leecherów: 4
Komentarze: 0





Pobierz Torrent
...( Info )...

Księżniczka Łabędzi: Tajemnica zamku
The Swan Princess and the Secret of the Castle (1997)
gatunek: Animacja, Familijny, Baśń
produkcja: USA
premiera: 19 czerwca 1997 (świat)
reżyseria: Richard Rich
scenariusz: Brian Nissen

http://www.filmweb.pl/film/Ksi%C4%99%C5%BCniczka+%C5%81ab%C4%99dzi%3A+Tajemnica+zamku-1997-107892

http://www.imdb.com/title/tt0120254/?ref_=fn_al_tt_1

https://fdb.pl/film/19118-ksiezniczka-labedzi-tajemnica-zamku

...( Opis )...

Księżniczka Odetta i Książę Derek obchodzą pierwszą rocznicę ślubu. Jest ona zakłócona przez pożary pól. Zły czarownik Clavius chce podbić świat i tym celu porywa królową Ubertę. Odetta i Derek zamierzają ją uratować.

...( Obsada )...

Michelle Nicastro...Odetta (głos)
Steve Vinovich...Puffin (głos)
Joey Camen...Knuckles (głos)
Doug Stone...Speed (głos)
Donald Sage Mackay...Jean-Bob (głos)
Christy Landers...Uberta (głos)
Douglas Sills...Derek (głos)
Jake Williamson...Clavius (głos)

...( Dane Techniczne )...

Format                      : AVI
Format/Info                 : Audio Video Interleave
File size                   : 699 MiB
Duration                    : 1h 8mn
Overall bit rate            : 1 425 Kbps
Writing application         : VirtualDubMod 1.5.10.2 (build 2540/release)
Writing library             : VirtualDubMod build 2540/release

Video
ID                          : 0
Format                      : MPEG-4 Visual
Format profile              : Advanced Simple@L5
Format settings, BVOP       : 2
Format settings, QPel       : No
Format settings, GMC        : No warppoints
Format settings, Matrix     : Default (H.263)
Codec ID                    : XVID
Codec ID/Hint               : XviD
Duration                    : 1h 8mn
Bit rate                    : 1 287 Kbps
Width                       : 720 pixels
Height                      : 384 pixels
Display aspect ratio        : 1.85:1
Frame rate                  : 25.000 fps
Color space                 : YUV
Chroma subsampling          : 4:2:0
Bit depth                   : 8 bits
Scan type                   : Progressive
Compression mode            : Lossy
Bits/(Pixel*Frame)          : 0.186
Stream size                 : 631 MiB (90%)
Writing library             : XviD 64

Audio
ID                          : 1
Format                      : MPEG Audio
Format version              : Version 1
Format profile              : Layer 3
Mode                        : Joint stereo
Mode extension              : MS Stereo
Codec ID                    : 55
Codec ID/Hint               : MP3
Duration                    : 1h 8mn
Bit rate mode               : Constant
Bit rate                    : 128 Kbps
Channel(s)                  : 2 channels
Sampling rate               : 48.0 KHz
Compression mode            : Lossy
Stream size                 : 62.8 MiB (9%)
Alignment                   : Aligned on interleaves
Interleave, duration        : 40 ms (1.00 video frame)
Interleave, preload duratio : 504 ms
Writing library             : LAME3.98.2ŞŞŞŞŞ

PS/ POBRALES --------> SEEDUJ /THX/
Szczegóły torrenta
Hash
ca9b53790bc93c4a56ebce4711d40ddfa4a2cde7
Główny tracker
http://tracker.devil-Darmowe-ToRenty.pl/announce [EXTERNAL]
Aktualizacja
11/01/2017 21:36:17 (Kliknij na [uaktualnij] by odświeżyc statystyki seedów i leecherów).
Zobacz również
Komentarze


Brak komentarzy...


Wstecz