Witamy Guest Strona Główna Regulamin Kontakt
User: Hasło:
Stwórz darmowe konto Odzyskiwanie hasła i loginu

Kategorie
 » Wszystkie torrenty
Filmy
 » DVD-R1885  
 » VCD/SVCD75  
 » BluRay/x2644019  
 » DivX/XviD LEKTOR/NAPISY PL55501  
 » DivX/XviD ENG/...19081  
 » RMVB5948  
 » HD720  
 » 3D205  
Seriale
 » Seriale Polskie2374  
 » Seriale Zagraniczne13514  
Dla Dzieci
 » Bajki Pl/Eng1020  
Anime
 » Anime Pl114  
 » Anime1237  
Muzyka
 » Muzyka Polska/Zagraniczna15957  
 » Soundtracki292  
 » Teledyski/Koncerty1919  
Gry
 » Gry PC9523  
 » Gry PS2/PS3/PSP1072  
 » Gry Xbox1153  
 » Gry - Inne Konsole406  
GSM/PDA
 » Tapety GSM/PDA108  
 » Programy GSM/PDA313  
 » Filmy GSM/PDA123  
 » Dzwonki GSM/PDA113  
 » Gry GSM/PDA224  
Książki/Czasopisma
 » E-Booki9037  
 » Audio-Booki938  
 » Czasopisma863  
 » Komiksy623  
Programy
 » Windows10471  
 » Linux363  
 » Macintosh94  
Inne
 » Tapety2361  
 » Śmieszne72  
 » Sport897  
 » Pozostałe255  
Erotyka
 » Czasopisma110  
 » Zdjęcia 5960  
 » Filmy47024  
 » Gry 65  
 » Hentai+1853  
Archiwum


Opowieść wszechczasów The Greatest Story Ever Told *1965* [BDRip XviD AC 3 RETRO] [Lektor PL]

Kategoria: DivX/XviD LEKTOR/NAPISY PL
Wstawił:  viola62
Dodano: 02/01/2017
Rozmiar: 2.64 GB
Seedów: 0
Leecherów: 2
Komentarze: 0

Pobierz plik
INFO/


Polski tytuł: Opowieść wszechczasów
Oryginalny tytuł: The Greatest Story Ever Told
Produkcja: USA
Gatunek: Biblijny, Dramat hist.
Data premiery: 1965-02-15 (Świat)
Reżyseria: George Stevens, David Lean, Jean Negulesco
Scenariusz: James Lee Barrett, George Stevens, Carl Sandburg
Muzyka: Alfred Newman
Zdjęcia: Loyal Griggs, William C. Mellor
Czas trwania: 199 min.

http://www.filmweb.pl/film/Opowie%C5%9B%C4%87+wszech+czas%C3%B3w-1965-32310
http://www.imdb.com/title/tt0059245/?ref_=fn_al_tt_1

OPIS/

Opowieść rozpoczyna się w niewielkim Betlejem. Tam pewnego dnia rodzi się mały chłopiec, którego matka nazwała Jezus. Król Herod gości w tym czasie trzech mędrców: Baltazara, Kacpra i Melchiora, którzy opowiadają mu historię, że narodził się przyszły król żydowski. Herod niezwłocznie wydaje rozkaz zabicia nowo narodzonych dzieci płci męskiej. Mały Jezus przypadkowo unika jatki, ponieważ ktoś ostrzegł jego ojca Józefa przed zagrożeniem i cała rodzina zbiegła do pobliskiego Egiptu. Dopiero po śmierci króla Heroda uchodźcy powracają do rodzinnego kraju...

OBSADA/

Max von Sydow ... Jesus
Michael Anderson Jr. ... James the Younger
Carroll Baker ... Veronica
Ina Balin ... Martha of Bethany
Victor Buono ... Sorak
Richard Conte ... Barabbas
Joanna Dunham ... Mary Magdalene
José Ferrer ... Herod Antipas
Van Heflin ... Bar Amand
Charlton Heston ... John the Baptist
Donald Pleasence ... The Dark Hermit - Satan
Sidney Poitier ... Simon of Cyrene
Claude Rains ... King Herod
Gary Raymond ... Peter
Telly Savalas ... Pontius Pilate

DANE/

Format           : AVI
Format/Info         : Audio Video Interleave
Format profile       : OpenDML
File size          : 2.64 GiB
Duration          : 3h 19mn
Overall bit rate      : 1 895 Kbps
Movie name         : CUSTOM.AC3.BDRip.XviD-RETRO
Writing application     : VirtualDubMod 1.5.10.2 (build 2540/release)
Writing library       : VirtualDubMod build 2540/release
Copyright          : Pobrano z *****

Video
ID             : 0
Format           : MPEG-4 Visual
Format profile       : Advanced Simple@L5
Format settings, BVOP    : 1
Format settings, QPel    : No
Format settings, GMC    : No warppoints
Format settings, Matrix   : Custom
Codec ID          : XVID
Codec ID/Hint        : XviD
Duration          : 3h 19mn
Bit rate          : 1 693 Kbps
Width            : 704 pixels
Height           : 256 pixels
Display aspect ratio    : 2.750
Frame rate         : 23.976 fps
Color space         : YUV
Chroma subsampling     : 4:2:0
Bit depth          : 8 bits
Scan type          : Progressive
Compression mode      : Lossy
Bits/(Pixel*Frame)     : 0.392
Stream size         : 2.35 GiB (89%)
Writing library       : XviD 62

Audio
ID             : 1
Format           : AC-3
Format/Info         : Audio Coding 3
Mode extension       : CM (complete main)
Format settings, Endianness : Big
Codec ID          : 2000
Duration          : 3h 19mn
Bit rate mode        : Constant
Bit rate          : 192 Kbps
Channel(s)         : 2 channels
Channel positions      : Front: L R
Sampling rate        : 48.0 KHz
Compression mode      : Lossy
Stream size         : 274 MiB (10%)
Alignment          : Split accross interleaves
Interleave, duration    : 42 ms (1.00 video frame)
Interleave, preload duratio : 500 ms

PS/ POBRALES -----> SEEDUJ /THX/
Szczegóły torrenta
Hash
c708a8dc9af73d0182eb4631f3bf1bbb5f294a25
Główny tracker
http://tracker.devil-Darmowe-ToRenty.pl/announce [EXTERNAL]
Aktualizacja
15/04/2017 08:23:00 (Kliknij na [uaktualnij] by odświeżyc statystyki seedów i leecherów).
Zobacz również
Komentarze


Brak komentarzy...


Wstecz