Witamy Guest Strona Główna Regulamin Kontakt
User: Hasło:
Stwórz darmowe konto Odzyskiwanie hasła i loginu

Kategorie
 » Wszystkie torrenty
Filmy
 » DVD-R1905  
 » VCD/SVCD75  
 » BluRay/x2644430  
 » DivX/XviD LEKTOR/NAPISY PL56821  
 » DivX/XviD ENG/...19086  
 » RMVB5952  
 » HD776  
 » 3D232  
Seriale
 » Seriale Polskie2695  
 » Seriale Zagraniczne14806  
Dla Dzieci
 » Bajki Pl/Eng1031  
Anime
 » Anime Pl115  
 » Anime1237  
Muzyka
 » Muzyka Polska/Zagraniczna17244  
 » Soundtracki326  
 » Teledyski/Koncerty1954  
Gry
 » Gry PC10270  
 » Gry PS2/PS3/PSP1076  
 » Gry Xbox1159  
 » Gry - Inne Konsole407  
GSM/PDA
 » Tapety GSM/PDA108  
 » Programy GSM/PDA313  
 » Filmy GSM/PDA123  
 » Dzwonki GSM/PDA113  
 » Gry GSM/PDA225  
Książki/Czasopisma
 » E-Booki9134  
 » Audio-Booki1006  
 » Czasopisma875  
 » Komiksy636  
Programy
 » Windows10619  
 » Linux363  
 » Macintosh94  
Inne
 » Tapety2386  
 » Śmieszne72  
 » Sport905  
 » Pozostałe275  
Erotyka
 » Czasopisma111  
 » Zdjęcia 6009  
 » Filmy50401  
 » Gry 66  
 » Hentai+1853  
Archiwum


Objawienia Maryjne *(2006)* [DVDRip XviD] [Lektor PL]

Kategoria: DivX/XviD LEKTOR/NAPISY PL
Wstawił:  viola62
Dodano: 03/01/2017
Rozmiar: 1.09 GB
Seedów: 0
Leecherów: 2
Komentarze: 0

INFO/

produkcja: USA
gatunek: Dokumentalny
czas trwania: 78min

https://www.youtube.com/results?search_query=objawienia+maryjne


OPIS/

To jedna z najgłośniejszych chrześcijańskich produkcji dokumentalnych, z jakimi miałem okazję się zapoznać. Film w sposób krytyczny, lecz nie krytykancki (!), ukazuje katolicki kult "Matki Bożej" i "objawienia maryjne" w świetle nauk zawartych w Biblii. "Wiadomości o paranormalnych zjawiskach docierają do nas coraz częściej. Miliony ludzi odwiedza miejsca objawień z nadzieją ujrzenia Błogosławionej Dziewicy Maryi. Wielu wierzy, że te coraz częstsze zjawiska wskazują na nadejście nowej ery. Tysiące przesłań pochodzących z objawień maryjnych mówi, że wkraczamy w krytyczny moment historii świata, w którym wkrótce mogą nastąpić drastyczne przemiany. Osoby, które śledzą objawienia Maryi wierzą, że przychodzi ona, aby skierować nas z powrotem do Boga. Inni natomiast twierdzą, że te zjawiska są manipulacją lub działaniem Szatana. Czy Biblia przepowiada objawienia, znaki i cuda w dniach ostatecznych? Co ciekawe osoby wierzące w UFO to osoby wierzące w objawienia Maryjne. Naukowcy zbadali, że miejsca gdzie występowały "zbliżenia UFO" to te same miejsca gdzie ukazywała się Maryja! Czy Słowo Boże wyjaśnia prawdziwe pochodzenie tych zjawisk? W jaki sposób objawienia maryjne oraz inne paranormalne zjawiska mogą zmienić świat w trzecim tysiącleciu? Twórcy filmu do sprawy podeszli profesjonalnie i w sposób bardzo wyważony. Do omawianych zjawisk odnoszą się tak duchowni katoliccy (w tym protestanci, którzy konwertowali na katolicyzm), jak również znakomici teolodzy ewangeliccy. Przyjrzano się z bliska tak samym objawieniom, jak i stosunku do nich Kościoła rzymsko - katolickiego, przede wszystkim papieża Jana Pawła II. Dogłębnie przeanalizowano też przesłania pochodzące od rzekomej "Maryi".

Twórcom udało się w stosunkowo krótkim dokumencie (78 minut) zawrzeć wiele cennych informacji. Przedstawiona dokumentacja jest naprawdę imponująca i wzbudza uznanie. Ten dokumentalny film jest dobrym przykładem rzetelnie wykonanej pracy z zachowaniem wszelkich norm rzetelności. Jest świetnym źródłem wiedzy, a zapoznanie się z nim może być wielce pożyteczne tak dla protestantów, jak i katolików. Ci ostatni jednak zapewne, o ile są katolikami głęboko zanurzonymi w tradycji i wierze swego Kościoła, mogą przeżyć prawdziwy szok. Film bowiem ostatecznie wykazuje, że "Maryja" objawiająca się w Mediugorje, Lourdes, Fatimie, Amsterdamie, Guadelupie, Akicie, czczona w tysiącach sanktuariach na całym świecie (twórcy filmu odnoszą się m.in. do kultu "Czarnej Madonny" z Jasnej Góry), w istocie nie jest matką Chrystusa... Kto zatem stoi za tymi objawieniami? Dowiedz się oglądając ten niezwykły dokument.


DANE/

Format           : AVI
Format/Info         : Audio Video Interleave
Format profile       : OpenDML
File size          : 1.09 GiB
Duration          : 1h 18mn
Overall bit rate      : 1 988 Kbps
Writing application     : Lavf51.12.1

Video
ID             : 0
Format           : MPEG-4 Visual
Format profile       : Simple@L1
Format settings, BVOP    : No
Format settings, QPel    : No
Format settings, GMC    : No warppoints
Format settings, Matrix   : Default (H.263)
Codec ID          : DX50
Codec ID/Hint        : DivX 5
Duration          : 1h 18mn
Bit rate          : 1 813 Kbps
Width            : 720 pixels
Height           : 576 pixels
Display aspect ratio    : 4:3
Frame rate         : 23.976 fps
Color space         : YUV
Chroma subsampling     : 4:2:0
Bit depth          : 8 bits
Scan type          : Progressive
Compression mode      : Lossy
Bits/(Pixel*Frame)     : 0.182
Stream size         : 1 019 MiB (91%)
Writing library       : Lavc51.40.4

Audio
ID             : 1
Format           : MPEG Audio
Format version       : Version 1
Format profile       : Layer 3
Mode            : Joint stereo
Mode extension       : MS Stereo
Codec ID          : 55
Codec ID/Hint        : MP3
Duration          : 1h 18mn
Bit rate mode        : Constant
Bit rate          : 160 Kbps
Channel(s)         : 2 channels
Sampling rate        : 44.1 KHz
Compression mode      : Lossy
Stream size         : 90.0 MiB (8%)
Alignment          : Aligned on interleaves
Interleave, duration    : 26 ms (0.63 video frame)
Interleave, preload duratio : 26 ms

PS/POBRALES----------> SEEDUJ /THX/
Szczegóły torrenta
Hash
bf094f1d2739f832b38334e61d58ae991aed3d55
Aktualizacja
17/04/2017 19:38:41 (Kliknij na [uaktualnij] by odświeżyc statystyki seedów i leecherów).
Zobacz również
Komentarze


Brak komentarzy...


Wstecz