Witamy Guest Strona Główna Regulamin Kontakt
User: Hasło:
Stwórz darmowe konto Odzyskiwanie hasła i loginu

Kategorie
 » Wszystkie torrenty
Filmy
 » DVD-R1854  
 » VCD/SVCD75  
 » BluRay/x2643888  
 » DivX/XviD LEKTOR/NAPISY PL54357  
 » DivX/XviD ENG/...19079  
 » RMVB5947  
 » HD610  
 » 3D182  
Seriale
 » Seriale Polskie2360  
 » Seriale Zagraniczne13058  
Dla Dzieci
 » Bajki Pl/Eng1009  
Anime
 » Anime Pl106  
 » Anime1237  
Muzyka
 » Muzyka Polska/Zagraniczna15682  
 » Soundtracki288  
 » Teledyski/Koncerty1902  
Gry
 » Gry PC9383  
 » Gry PS2/PS3/PSP1072  
 » Gry Xbox1151  
 » Gry - Inne Konsole405  
GSM/PDA
 » Tapety GSM/PDA108  
 » Programy GSM/PDA311  
 » Filmy GSM/PDA122  
 » Dzwonki GSM/PDA111  
 » Gry GSM/PDA224  
Książki/Czasopisma
 » E-Booki9023  
 » Audio-Booki921  
 » Czasopisma855  
 » Komiksy612  
Programy
 » Windows10387  
 » Linux363  
 » Macintosh94  
Inne
 » Tapety2359  
 » Śmieszne72  
 » Sport883  
 » Pozostałe247  
Erotyka
 » Czasopisma110  
 » Zdjęcia 5944  
 » Filmy46286  
 » Gry 65  
 » Hentai+1853  
Archiwum


Noe: Wybrany przez Boga / Noah *(2014)* [480p BRRip Xvid AC3 MORS] [Lektor PL]

Kategoria: DivX/XviD LEKTOR/NAPISY PL
Wstawił:  viola62
Dodano: 03/01/2017
Rozmiar: 1.68 GB
Seedów: 6
Leecherów: 2
Komentarze: 0

Pobierz plik
INFO/


Tytuł: Noah
Tytuł PL: Noe: Wybrany przez Boga

Produkcja: USA
Gatunek: Dramat, Fantasy
Czas trwania: 137 min.
Premiera: 28.03.2014 - Polska, 10.03.2014 - Świat
Reżyseria: Darren Aronofsky
Scenariusz: Darren Aronofsky, Ari Handel

http://www.filmweb.pl/film/Noe%3A+Wybrany+przez+Boga-2014-622318

https://www.youtube.com/watch?v=vZ_9flH3uoo

http://www.imdb.com/title/tt1959490/?ref_=fn_al_tt_1


OPIS/

Zainspirowany biblijną historią o sile ducha, poświęceniu i nadziei Darren Aronofsky przekłada na język filmu osobistą wizję opowieści o Noem. Russell Crowe wciela się w niej w postać człowieka, który został wybrany do podjęcia wielkiej misji uratowania rodzaju ludzkiego oraz zwierząt przed apokaliptycznym potopem, który ma zniszczyć zepsuty świat. Film podejmuje towarzyszące człowiekowi od zarania dziejów tematy dobra i zła, zniszczenia i miłosierdzia, nadziei oraz rodziny.

OBSADA/

★ Russell Crowe ................ Noe
★ Jennifer Connelly ............ Naameh
★ Ray Winstone ................. Tubal-Kain
★ Anthony Hopkins .............. Matuzalem
★ Emma Watson ... .............. Ila
★ Logan Lerman ................. Cham
★ Douglas Booth ................ Sem
★ Nick Nolte ................... Szemhazan

DANE/

Format           : AVI
Format/Info         : Audio Video Interleave
File size          : 1.68 GiB
Duration          : 2h 17mn
Overall bit rate      : 1 743 Kbps
Writing library       : VirtualDub build 32842/release

Video
ID             : 0
Format           : MPEG-4 Visual
Format profile       : Simple@L3
Format settings, BVOP    : No
Format settings, QPel    : No
Format settings, GMC    : No warppoints
Format settings, Matrix   : Default (H.263)
Codec ID          : XVID
Codec ID/Hint        : XviD
Duration          : 2h 17mn
Bit rate          : 1 350 Kbps
Width            : 720 pixels
Height           : 384 pixels
Display aspect ratio    : 1.85:1
Frame rate         : 23.976 fps
Color space         : YUV
Chroma subsampling     : 4:2:0
Bit depth          : 8 bits
Scan type          : Progressive
Compression mode      : Lossy
Bits/(Pixel*Frame)     : 0.204
Stream size         : 1.30 GiB (77%)
Writing library       : XviD 1.2.1 (UTC 2008-12-04)

Audio
ID             : 1
Format           : AC-3
Format/Info         : Audio Coding 3
Mode extension       : CM (complete main)
Format settings, Endianness : Big
Codec ID          : 2000
Duration          : 2h 17mn
Bit rate mode        : Constant
Bit rate          : 384 Kbps
Channel(s)         : 6 channels
Channel positions      : Front: L C R, Side: L R, LFE
Sampling rate        : 48.0 KHz
Compression mode      : Lossy
Stream size         : 379 MiB (22%)
Alignment          : Aligned on interleaves
Interleave, duration    : 42 ms (1.00 video frame)
Interleave, preload duratio : 512 ms

PS/ POBRALES --------> SEEDUJ /THX/
Szczegóły torrenta
Hash
ba3e65fca37ab7a9329b1f8fa5e6117fefcdd417
Główny tracker
http://tracker.devil-Darmowe-ToRenty.pl/announce [EXTERNAL]
Aktualizacja
01/05/2017 15:06:59 (Kliknij na [uaktualnij] by odświeżyc statystyki seedów i leecherów).
Zobacz również
Komentarze


Brak komentarzy...


Wstecz