Witamy Guest Strona Główna Regulamin Kontakt
User: Hasło:
Stwórz darmowe konto Odzyskiwanie hasła i loginu

Kategorie
 » Wszystkie torrenty
Filmy
 » DVD-R1882  
 » VCD/SVCD75  
 » BluRay/x2644018  
 » DivX/XviD LEKTOR/NAPISY PL55434  
 » DivX/XviD ENG/...19081  
 » RMVB5948  
 » HD720  
 » 3D202  
Seriale
 » Seriale Polskie2374  
 » Seriale Zagraniczne13497  
Dla Dzieci
 » Bajki Pl/Eng1020  
Anime
 » Anime Pl114  
 » Anime1237  
Muzyka
 » Muzyka Polska/Zagraniczna15952  
 » Soundtracki292  
 » Teledyski/Koncerty1918  
Gry
 » Gry PC9520  
 » Gry PS2/PS3/PSP1072  
 » Gry Xbox1153  
 » Gry - Inne Konsole406  
GSM/PDA
 » Tapety GSM/PDA108  
 » Programy GSM/PDA313  
 » Filmy GSM/PDA123  
 » Dzwonki GSM/PDA113  
 » Gry GSM/PDA224  
Książki/Czasopisma
 » E-Booki9037  
 » Audio-Booki938  
 » Czasopisma863  
 » Komiksy623  
Programy
 » Windows10469  
 » Linux363  
 » Macintosh94  
Inne
 » Tapety2361  
 » Śmieszne72  
 » Sport897  
 » Pozostałe255  
Erotyka
 » Czasopisma110  
 » Zdjęcia 5958  
 » Filmy46984  
 » Gry 65  
 » Hentai+1853  
Archiwum


Księżniczka łabędzi The Swan Princess *1994* [DVDRip XviD] [Dubbing PL]

Kategoria: Bajki Pl/Eng
Wstawił:  viola62
Dodano: 11/01/2017
Rozmiar: 697.75 MB
Seedów: 1
Leecherów: 5
Komentarze: 0

Pobierz plik
...( Info )...

Księżniczka łabędzi
The Swan Princess (1994)
gatunek: Animacja, Familijny, Baśń
produkcja: USA
premiera: 15 marca 1996 (Polska), 18 listopada 1994 (świat)
reżyseria: Richard Rich
scenariusz: Brian Nissen

http://www.filmweb.pl/film/Ksi%C4%99%C5%BCniczka+%C5%82ab%C4%99dzi-1994-6909

http://www.imdb.com/title/tt0111333/?ref_=fn_al_tt_1

https://fdb.pl/film/15160-ksiezniczka-labedzi

...( Opis )...

Księżniczka Łabędzi to muzyczny film animowany oparty na klasycznej baśni o Jeziorze Łabędzim. Akcja tej fantastycznej opowieści rozgrywa się w mitycznych czasach, gdy królowie mieszkali we wspaniałych zamkach, ziemię porastały nieprzebyte knieje. Dwoje zakochanych, książę Derek i księżniczka Odetta, zostają rozdzieleni przez złego Rothbarta. Czarownik porywa księżniczkę i zamienia ją w łabędzia. Chce ją poślubić, żeby zostać władcą królestwa. Dobroduszne, zabawne zwierzątka zamieszkujące Jezioro Łabędzie pomagają Odetcie, lecz aby zrzucić złowrogi czar Derek musi udowodnić swą miłość i stanąć do walki z przebiegłym i potężnym Rothbartem. Księżniczka Łabędzi jest filmem pełnym magii i przygód, muzyki i humoru.

...( Obsada )...


Jack Palance...Lord Rothbart (głos)
Michelle Nicastro...Dorosła Księżniczka Odette (głos)
Mark Harelik...Lord Rogers (głos)
Adam Wylie...Młody Książę Derek (głos)
Howard McGillin...Dorosły Książę Derek (głos)
Sandy Duncan...Królowa Uberta (głos)
Steve Vinovich...Puffin (głos)
James Arrington...Szambelan (głos)

...( Dane Techniczne )...

Format                      : AVI
Format/Info                 : Audio Video Interleave
File size                   : 697 MiB
Duration                    : 1h 25mn
Overall bit rate            : 1 140 Kbps
Writing application         : VirtualDubMod 1.5.10.2 (build 2540/release)
Writing library             : VirtualDubMod build 2540/release

Video
ID                          : 0
Format                      : MPEG-4 Visual
Format profile              : Advanced Simple@L5
Format settings, BVOP       : 2
Format settings, QPel       : No
Format settings, GMC        : No warppoints
Format settings, Matrix     : Default (H.263)
Codec ID                    : XVID
Codec ID/Hint               : XviD
Duration                    : 1h 25mn
Bit rate                    : 1 002 Kbps
Width                       : 640 pixels
Height                      : 336 pixels
Display aspect ratio        : 1.905
Frame rate                  : 25.000 fps
Color space                 : YUV
Chroma subsampling          : 4:2:0
Bit depth                   : 8 bits
Scan type                   : Progressive
Compression mode            : Lossy
Bits/(Pixel*Frame)          : 0.186
Stream size                 : 613 MiB (88%)
Writing library             : XviD 64

Audio
ID                          : 1
Format                      : MPEG Audio
Format version              : Version 1
Format profile              : Layer 3
Mode                        : Joint stereo
Mode extension              : MS Stereo
Codec ID                    : 55
Codec ID/Hint               : MP3
Duration                    : 1h 25mn
Bit rate mode               : Constant
Bit rate                    : 128 Kbps
Channel(s)                  : 2 channels
Sampling rate               : 48.0 KHz
Compression mode            : Lossy
Stream size                 : 78.3 MiB (11%)
Alignment                   : Aligned on interleaves
Interleave, duration        : 40 ms (1.00 video frame)
Interleave, preload duratio : 504 ms
Writing library             : LAME3.98.2ŞŞŞŞŞŞŞŞŞŞ

PS/ POBRALES --------> SEEDUJ /THX/
Szczegóły torrenta
Hash
b966619a5c413885f0f5b64e689038a37f76e122
Główny tracker
http://tracker.devil-Darmowe-ToRenty.pl/announce [EXTERNAL]
Aktualizacja
11/01/2017 21:36:42 (Kliknij na [uaktualnij] by odświeżyc statystyki seedów i leecherów).
Zobacz również
Komentarze


Brak komentarzy...


Wstecz