Witamy Guest Strona Główna Regulamin Kontakt
User: Hasło:
Stwórz darmowe konto Odzyskiwanie hasła i loginu

Kategorie
 » Wszystkie torrenty
Filmy
 » DVD-R1872  
 » VCD/SVCD75  
 » BluRay/x2643932  
 » DivX/XviD LEKTOR/NAPISY PL54860  
 » DivX/XviD ENG/...19080  
 » RMVB5948  
 » HD678  
 » 3D194  
Seriale
 » Seriale Polskie2367  
 » Seriale Zagraniczne13284  
Dla Dzieci
 » Bajki Pl/Eng1011  
Anime
 » Anime Pl113  
 » Anime1237  
Muzyka
 » Muzyka Polska/Zagraniczna15889  
 » Soundtracki290  
 » Teledyski/Koncerty1908  
Gry
 » Gry PC9467  
 » Gry PS2/PS3/PSP1072  
 » Gry Xbox1153  
 » Gry - Inne Konsole406  
GSM/PDA
 » Tapety GSM/PDA108  
 » Programy GSM/PDA311  
 » Filmy GSM/PDA123  
 » Dzwonki GSM/PDA113  
 » Gry GSM/PDA224  
Książki/Czasopisma
 » E-Booki9035  
 » Audio-Booki938  
 » Czasopisma863  
 » Komiksy623  
Programy
 » Windows10420  
 » Linux363  
 » Macintosh94  
Inne
 » Tapety2359  
 » Śmieszne72  
 » Sport895  
 » Pozostałe254  
Erotyka
 » Czasopisma110  
 » Zdjęcia 5948  
 » Filmy46670  
 » Gry 65  
 » Hentai+1853  
Archiwum


BATMAN V SUPERMAN: ŚWIT SPRAWIEDLIWOŚCI 3D / BATMAN V SUPERMAN: DAWN OF JUSTICE *2016* [1080P 3D HALF OVER UNDER AC3 BLURAY X264] [DUBBING I NAPISY PL] [Ekipa P T]

Kategoria: 3D
Wstawił:  dragonnn20010
Dodano: 25/09/2016
Rozmiar: 7.64 GB
Seedów: -/-
Leecherów: -/-
Komentarze: 0

Pobierz plik
gatunek: Akcja,Sci-Fi
produkcja: USA
premiera: 1 kwietnia 2016 (Polska) 19 marca 2016 (świat)
reżyseria: Zack Snyder
scenariusz: Chris Terrio,David S. Goyer



W obawie przed poczynaniami nieposkromionego superbohatera o boskich rysach i zdolnościach, najznamienitszy obywatel Gotham City, a zarazem zaciekły strażnik porządku, staje do walki z otaczanym czcią współczesnym wybawcą Metropolis, podczas gdy świat usiłuje ustalić, jakiego bohatera naprawdę potrzebuje. Wobec konfliktu, który rozgorzał między Batmanem i Supermanem, na horyzoncie szybko pojawia się nowy wróg, stawiając ludzkość w obliczu śmiertelnego niebezpieczeństwa, z jakim jeszcze nigdy nie musiała się mierzyć.



Ben Affleck - Bruce Wayne / Batman (Jacek Rozenek polski dubbing)
Henry Cavill - Clark Kent / Superman (Grzegorz Kwiecień polski dubbing)
Jesse Eisenberg - Lex Luthor (Krzysztof Szczepaniak polski dubbing)
Amy Adams - Lois Lane (Bożena Furczyk polski dubbing)
Gal Gadot - Diana Prince / Wonder Woman (Anna Sroka polski dubbing)
Jeremy Irons - Alfred Pennyworth (Andrzej Chudy polski dubbing)
Holly Hunter - Senator June Finch (Ewa Serwa polski dubbing)



Format                         : Matroska
Format version                 : Version 2
File size                      : 7.64 GiB
Duration                       : 2h 31mn
Overall bit rate               : 7 214 Kbps
Encoded date                   : UTC 2016-07-23 21:50:57
Writing application            : mkvmerge v5.7.0 ('The Whirlwind&#039 built on Jul  8 2012 20:08:51
Writing library                : libebml v1.2.3 + libmatroska v1.3.0

Video
ID                             : 1
Format                         : AVC
Format/Info                    : Advanced Video Codec
Format profile                 : High@L4.1
Format settings, CABAC         : Yes
Format settings, ReFrames      : 4 frames
Codec ID                       : V_MPEG4/ISO/AVC
Duration                       : 2h 31mn
Bit rate                       : 6 359 Kbps
Width                          : 1 920 pixels
Height                         : 1 080 pixels
Display aspect ratio           : 16:9 (OAR 2.39:1)
Frame rate mode                : Constant
Frame rate                     : 23.976 (24000/1001) fps
Color space                    : YUV
Chroma subsampling             : 4:2:0
Bit depth                      : 8 bits
Scan type                      : Progressive
Bits/(Pixel*Frame)             : 0.128
Stream size                    : 6.61 GiB (86%)
Writing library                : x264
Encoding settings              : cabac=1 / ref=4 / deblock=1:-1:-1 / rc=2pass
Default                        : Yes
Forced                         : No

Audio #1
ID                             : 2
Format                         : AC-3
Format/Info                    : Audio Coding 3
Mode extension                 : CM (complete main)
Format settings, Endianness    : Big
Codec ID                       : A_AC3
Duration                       : 2h 31mn
Bit rate mode                  : Constant
Bit rate                       : 384 Kbps
Channel(s)                     : 6 channels
Channel positions              : Front: L C R, Side: L R, LFE
Sampling rate                  : 48.0 KHz
Compression mode               : Lossy
Stream size                    : 417 MiB (5%)
Title                          : AC3 5.1 Dubbing PL
Language                       : Polish
Default                        : Yes
Forced                         : No

Audio #2
ID                             : 3
Format                         : AC-3
Format/Info                    : Audio Coding 3
Mode extension                 : CM (complete main)
Format settings, Endianness    : Big
Codec ID                       : A_AC3
Duration                       : 2h 31mn
Bit rate mode                  : Constant
Bit rate                       : 448 Kbps
Channel(s)                     : 6 channels
Channel positions              : Front: L C R, Side: L R, LFE
Sampling rate                  : 48.0 KHz
Compression mode               : Lossy
Stream size                    : 486 MiB (6%)
Title                          : AC3 5.1 ENG
Language                       : English
Default                        : No
Forced                         : No

Text #1
ID                             : 4
Format                         : UTF-8
Codec ID                       : S_TEXT/UTF8
Codec ID/Info                  : UTF-8 Plain Text
Title                          : Napisy 2D
Language                       : Polish
Default                        : No
Forced                         : No

Text #2
ID                             : 5
Format                         : PGS
Muxing mode                    : zlib
Codec ID                       : S_HDMV/PGS
Codec ID/Info                  : Picture based subtitle format used on BDs/HD-DVDs
Title                          : Napisy 3D
Language                       : Polish
Default                        : No
Forced                         : No

Text #3
ID                             : 6
Format                         : UTF-8
Codec ID                       : S_TEXT/UTF8
Codec ID/Info                  : UTF-8 Plain Text
Title                          : napisy 2D
Language                       : English
Default                        : No
Forced                         : No

Text #4
ID                             : 7
Format                         : PGS
Muxing mode                    : zlib
Codec ID                       : S_HDMV/PGS
Codec ID/Info                  : Picture based subtitle format used on BDs/HD-DVDs
Title                          : napisy 3D
Language                       : English
Default                        : No
Forced                         : No
Szczegóły torrenta
Hash
b407184f68d630be322cd6c0dde3c3b063bbbcc7
Główny tracker
http://pow7.com:80/announce [EXTERNAL]
Aktualizacja
03/06/2017 12:06:09 (Kliknij na [uaktualnij] by odświeżyc statystyki seedów i leecherów).
Zobacz również
Komentarze


Brak komentarzy...


Wstecz