Witamy Guest Strona Główna Regulamin Kontakt
User: Hasło:
Stwórz darmowe konto Odzyskiwanie hasła i loginu

Kategorie
 » Wszystkie torrenty
Filmy
 » DVD-R1896  
 » VCD/SVCD75  
 » BluRay/x2644201  
 » DivX/XviD LEKTOR/NAPISY PL56425  
 » DivX/XviD ENG/...19083  
 » RMVB5949  
 » HD764  
 » 3D222  
Seriale
 » Seriale Polskie2566  
 » Seriale Zagraniczne14316  
Dla Dzieci
 » Bajki Pl/Eng1030  
Anime
 » Anime Pl115  
 » Anime1237  
Muzyka
 » Muzyka Polska/Zagraniczna16253  
 » Soundtracki296  
 » Teledyski/Koncerty1927  
Gry
 » Gry PC9688  
 » Gry PS2/PS3/PSP1074  
 » Gry Xbox1154  
 » Gry - Inne Konsole407  
GSM/PDA
 » Tapety GSM/PDA108  
 » Programy GSM/PDA313  
 » Filmy GSM/PDA123  
 » Dzwonki GSM/PDA113  
 » Gry GSM/PDA225  
Książki/Czasopisma
 » E-Booki9049  
 » Audio-Booki957  
 » Czasopisma865  
 » Komiksy624  
Programy
 » Windows10580  
 » Linux363  
 » Macintosh94  
Inne
 » Tapety2363  
 » Śmieszne72  
 » Sport900  
 » Pozostałe256  
Erotyka
 » Czasopisma110  
 » Zdjęcia 5979  
 » Filmy47676  
 » Gry 66  
 » Hentai+1853  
Archiwum


WWE Royal Rumble 2016 PPV [WEBRip h264 KYR] [ENG]

Kategoria: Sport
Wstawił:  Bezzol
Dodano: 26/01/2016
Rozmiar: 1.50 GB
Seedów: 5
Leecherów: 0
Komentarze: 0

Pobierz plik
Video
ID : 1
Format : AVC
Format/Info : Advanced Video Codec
Format profile : Main@L3.1
Format settings, CABAC : Yes
Format settings, ReFrames : 4 frames
Codec ID : avc1
Codec ID/Info : Advanced Video Coding
Duration : 2h 59mn
Bit rate mode : Constant
Bit rate : 1 104 Kbps
Maximum bit rate : 2 245 Kbps
Width : 640 pixels
Height : 360 pixels
Display aspect ratio : 16:9
Frame rate mode : Constant
Frame rate : 29.970 (30000/1001) fps
Color space : YUV
Chroma subsampling : 4:2:0
Bit depth : 8 bits
Scan type : Progressive
Bits/(Pixel*Frame) : 0.160
Stream size : 1.38 GiB (92%)
Title : wwe539767983_RomanReignswilldefendhisWWEWorldHleMatch__ROYRUMB_SDtypem3u8_1200K_track1.h264
Encoded date : UTC 2016-01-25 04:32:29
Tagged date : UTC 2016-01-25 04:33:04

Audio
ID : 2
Format : AAC
Format/Info : Advanced Audio Codec
Format profile : LC
Codec ID : 40
Duration : 2h 59mn
Bit rate mode : Variable
Bit rate : 93.5 Kbps
Maximum bit rate : 106 Kbps
Channel(s) : 2 channels
Channel positions : Front: L R
Sampling rate : 48.0 KHz
Frame rate : 46.875 fps (1024 spf)
Compression mode : Lossy
Stream size : 120 MiB (8%)
Title : wwe539767983_RomanReignswilldefendhisWWEWorldHleMatch__ROYRUMB_SDtypem3u8_1200K_track2.aac
Encoded date : UTC 2016-01-25 04:32:59
Tagged date : UTC 2016-01-25 04:33:04

Text
ID : 1-CC1
Format : EIA-608
Muxing mode : SCTE 128 / DTVCC Transport
Muxing mode, more info : Muxed in Video #1
Duration : 2h 59mn
Bit rate mode : Constant
Stream size : 0.00 Byte (0%)
Encoded stream size : 0.00 Byte (0%)
Szczegóły torrenta
Hash
b153ca20c9bcbece45d77356184252199d03605c
Aktualizacja
25/06/2016 15:50:01 (Kliknij na [uaktualnij] by odświeżyc statystyki seedów i leecherów).
Zobacz również
Komentarze


Brak komentarzy...


Wstecz