Witamy Guest (Zaloguj) Strona Główna Regulamin Kontakt
User: Hasło:
Stwórz darmowe konto Odzyskiwanie hasła i loginu

Kategorie
 » Wszystkie torrenty
Filmy :
 » DVD-R1836  
 » VCD/SVCD74  
 » BluRay/x2643780  
 » DivX/XviD LEKTOR/NAPISY PL52965  
 » DivX/XviD ENG/...19082  
 » RMVB6000  
 » HD544  
 » 3D155  
Seriale :
 » Seriale Polskie2313  
 » Seriale Zagraniczne12402  
Dla Dzieci :
 » Bajki Pl/Eng981  
Anime :
 » Anime Pl116  
 » Anime1328  
Muzyka :
 » Muzyka Polska/Zagraniczna16122  
 » Soundtracki298  
 » Teledyski/Koncerty1958  
Gry :
 » Gry PC9304  
 » Gry PS2/PS3/PSP1082  
 » Gry Xbox1162  
 » Gry - Inne Konsole467  
GSM/PDA :
 » Tapety GSM/PDA109  
 » Programy GSM/PDA287  
 » Filmy GSM/PDA122  
 » Dzwonki GSM/PDA111  
 » Gry GSM/PDA220  
Ksiazki/Czasopisma :
 » E-Booki9018  
 » Audio-Booki828  
 » Czasopisma871  
 » Komiksy614  
Programy :
 » Windows10822  
 » Linux386  
 » Macintosh94  
Inne :
 » Tapety2380  
 » ¦mieszne72  
 » Sport934  
 » Pozostale247  
Erotyka :
 » Czasopisma109  
 » Zdjęcia 5951  
 » Filmy48596  
 » Gry 65  
 » Hentai+1853  


Sin Reaper 2012 1080p BluRay x264 DTS FGT

Kategoria: DivX/XviD ENG/...
Wystawil:  ukulele
Data: 16/09/2016
Rozmiar: 3.75 GB
Seedow: 13
Leecherow: 9




Pobierz Torrent









[+] Show MediaInfo
Video
ID                                       : 1
Format                                   : AVC
Format/Info                              : Advanced Video Codec
Format profile                           : High@L4.1
Format settings, CABAC                   : Yes
Format settings, ReFrames                : 4 frames
Codec ID                                 : V_MPEG4/ISO/AVC
Duration                                 : 1h 34mn
Bit rate                                 : 4 785 Kbps
Width                                    : 1 920 pixels
Height                                   : 1 080 pixels
Display aspect ratio                     : 16:9
Frame rate mode                          : Constant
Frame rate                               : 23.976 (24000/1001) fps
Color space                              : YUV
Chroma subsampling                       : 4:2:0
Bit depth                                : 8 bits
Scan type                                : Progressive
Bits/(Pixel*Frame)                       : 0.096
Stream size                              : 3.17 GiB (84%)
Writing library                          : x264 core 140 r2377 1ca7bb9
Encoding settings                        : cabac=1 / ref=4 / deblock=1:-1:-1 / analyse=0x3:0x133 / me=umh / subme=7 / psy=1 / psy_rd=1.00:0.15 / mixed_ref=1 / me_range=16 / chroma_me=1 / trellis=1 / 8x8dct=1 / cqm=0 / deadzone=21,11 / fast_pskip=0 / chroma_qp_offset=-3 / threads=9 / lookahead_threads=1 / sliced_threads=0 / nr=0 / decimate=1 / interlaced=0 / bluray_compat=0 / constrained_intra=0 / bframes=3 / b_pyramid=2 / b_adapt=1 / b_bias=0 / direct=1 / weightb=1 / open_gop=0 / weightp=2 / keyint=250 / keyint_min=23 / scenecut=40 / intra_refresh=0 / rc_lookahead=40 / rc=crf / mbtree=1 / crf=20.0 / qcomp=0.60 / qpmin=0 / qpmax=69 / qpstep=4 / ip_ratio=1.40 / aq=1:1.00
Default                                  : Yes
Forced                                   : No

Audio
ID                                       : 2
Format                                   : DTS
Format/Info                              : Digital Theater Systems
Mode                                     : 16
Format settings, Endianness              : Big
Codec ID                                 : A_DTS
Duration                                 : 1h 34mn
Bit rate mode                            : Constant
Bit rate                                 : 768 Kbps
Channel(s)                               : 2 channels
Channel positions                        : Front: L R
Sampling rate                            : 48.0 KHz
Frame rate                               : 93.750 fps (512 spf)
Bit depth                                : 16 bits
Compression mode                         : Lossy
Stream size                              : 521 MiB (14%)
Language                                 : English
Default                                  : No
Forced                                   : No



Szczegoly torrenta
Info Hash
ad8245d1c1db037c4cbaa275202bddd68a87bd65
Tracker
http://tracker.trackerfix.com:80/announce [EXTERNAL]
Uaktualnienie
18/01/2017 18:02:54 (Jeżeli nie widać seeda kliknij na [uaktualnij] by od¶wieżyc statystyki).
Komentarze


Brak komentarzy...


Wstecz