Witamy Guest Strona Główna Regulamin Kontakt
User: Hasło:
Stwórz darmowe konto Odzyskiwanie hasła i loginu

Kategorie
 » Wszystkie torrenty
Filmy
 » DVD-R1829  
 » VCD/SVCD75  
 » BluRay/x2643835  
 » DivX/XviD LEKTOR/NAPISY PL53717  
 » DivX/XviD ENG/...19079  
 » RMVB5947  
 » HD577  
 » 3D179  
Seriale
 » Seriale Polskie2354  
 » Seriale Zagraniczne12693  
Dla Dzieci
 » Bajki Pl/Eng1009  
Anime
 » Anime Pl106  
 » Anime1237  
Muzyka
 » Muzyka Polska/Zagraniczna15601  
 » Soundtracki287  
 » Teledyski/Koncerty1897  
Gry
 » Gry PC9317  
 » Gry PS2/PS3/PSP1072  
 » Gry Xbox1151  
 » Gry - Inne Konsole405  
GSM/PDA
 » Tapety GSM/PDA108  
 » Programy GSM/PDA285  
 » Filmy GSM/PDA122  
 » Dzwonki GSM/PDA111  
 » Gry GSM/PDA220  
Książki/Czasopisma
 » E-Booki9000  
 » Audio-Booki902  
 » Czasopisma848  
 » Komiksy610  
Programy
 » Windows10359  
 » Linux363  
 » Macintosh94  
Inne
 » Tapety2359  
 » Śmieszne72  
 » Sport882  
 » Pozostałe246  
Erotyka
 » Czasopisma107  
 » Zdjęcia 5937  
 » Filmy46009  
 » Gry 65  
 » Hentai+1853  
Archiwum


Sausage Party *2016* (60FPS) [720p DTS 5 1 AC3 BluRay x264 SONDA] [Lektor i Napisy PL] [ENG]

Kategoria: HD
Wstawił:  Sonda
Dodano: 09/11/2016
Rozmiar: 9.19 GB
Seedów: 8
Leecherów: 0
Komentarze: 0

Pobierz plik


Sausage Party *2016* (60FPS) 720p.BDRip-Sonda
============================

gatunek: Animacja,Komedia
produkcja: USA
premiera: 12 sierpnia 2016 (Polska) 14 marca 2016 (świat)
reżyseria: Conrad Vernon,Greg Tiernan
scenariusz: Evan Goldberg,Kyle Hunter,Seth Rogen,Ariel Shaffir

http://www.imdb.com/title/tt1700841/

Obsada:

Seth Rogen ... Frank / Sierżant Pieprz (głos)
Kristen Wiig ... Brenda (głos)
Jonah Hill ... Carl (głos)
Bill Hader ... Woda ognista / Tequila / Guaco (głos)
Michael Cera ... Barry (głos)
James Franco ... Narkoman (głos)
Danny McBride ... Miodowa musztarda (głos)

Opis:

Historia Franka, parówki, która odkrywa prawdę o sobie - o tym, kim jest i jaka jest jej rola. Po upadku z koszyka na zakupy, tytułowa parówka wraz z innymi przyjaciółmi z supermarketu odbywa wielką podróż przez sklep, podróż, która pozwala im odkryć prawdę o sobie.

Storyline:

The products at Shopwell's Grocery Store are made to believe a code that helps them live happy lives until it's time for them to leave the comfort of the supermarket and head for the great beyond. However, after a botched trip to the great beyond leaves one sausage named Frank and his companion Bun stranded, Frank goes to great lengths (pun intended) to return to his package and make another trip to the great beyond. But as Frank's journey takes him from one end of the supermarket to the other, Frank's quest to discover the truth about his existence as a sausage turns incredibly dark. Can he expose the truth to the rest of the supermarket and get his fellow products to rebel against their human masters?

Screenshot:



[img]http://i.imgur.com/JWqr1GC.jp[/img]g



Dane techniczne:

General
Format                                   : Matroska
Format version                           : Version 2
File size                                : 9.19 GiB
Duration                                 : 1h 28mn
Overall bit rate                         : 14.8 Mbps
Movie name                               : Sausage.Party.2016.PL.720p.BDRip.60FPS.Sonda
Encoded date                             : UTC 2016-11-06 10:08:12
Writing application                      : mkvmerge v5.7.0 ('The Whirlwind&#039 built on Jul  8 2012 20:08:51
Writing library                          : libebml v1.2.3 + libmatroska v1.3.0

Video
ID                                       : 1
Format                                   : AVC
Format/Info                              : Advanced Video Codec
Format profile                           : High@L4.1
Format settings, CABAC                   : Yes
Format settings, ReFrames                : 6 frames
Codec ID                                 : V_MPEG4/ISO/AVC
Duration                                 : 1h 28mn
Bit rate                                 : 12.0 Mbps
Width                                    : 1 280 pixels
Height                                   : 692 pixels
Display aspect ratio                     : 1.85:1
Frame rate mode                          : Constant
Frame rate                               : 60.000 fps
Original frame rate                      : 59.940 fps
Color space                              : YUV
Chroma subsampling                       : 4:2:0
Bit depth                                : 8 bits
Scan type                                : Progressive
Bits/(Pixel*Frame)                       : 0.226
Stream size                              : 7.28 GiB (79%)
Title                                    : 60FPS Rip by Sonda
Writing library                          : x264
Encoding settings                        : cabac=1 / ref=6 / deblock=1:-1:-1 / rc=2pass
Default                                  : Yes
Forced                                   : No

Audio #1
ID                                       : 2
Format                                   : AC-3
Format/Info                              : Audio Coding 3
Mode extension                           : CM (complete main)
Format settings, Endianness              : Big
Codec ID                                 : A_AC3
Duration                                 : 1h 28mn
Bit rate mode                            : Constant
Bit rate                                 : 640 Kbps
Channel count                            : 6 channels
Channel positions                        : Front: L C R, Side: L R, LFE
Sampling rate                            : 48.0 KHz
Bit depth                                : 16 bits
Compression mode                         : Lossy
Stream size                              : 406 MiB (4%)
Title                                    : AC3 5.1 Lektor PL
Language                                 : Polish
Default                                  : Yes
Forced                                   : Yes

Audio #2
ID                                       : 3
Format                                   : AC-3
Format/Info                              : Audio Coding 3
Mode extension                           : CM (complete main)
Format settings, Endianness              : Big
Codec ID                                 : A_AC3
Duration                                 : 1h 28mn
Bit rate mode                            : Constant
Bit rate                                 : 640 Kbps
Channel count                            : 6 channels
Channel positions                        : Front: L C R, Side: L R, LFE
Sampling rate                            : 48.0 KHz
Bit depth                                : 16 bits
Compression mode                         : Lossy
Stream size                              : 406 MiB (4%)
Title                                    : AC3 5.1 ENG
Language                                 : English
Default                                  : No
Forced                                   : No

Audio #3
ID                                       : 4
Format                                   : DTS
Format/Info                              : Digital Theater Systems
Mode                                     : 16
Format settings, Endianness              : Big
Codec ID                                 : A_DTS
Duration                                 : 1h 28mn
Bit rate mode                            : Constant
Bit rate                                 : 1 509 Kbps
Channel count                            : 6 channels
Channel positions                        : Front: L C R, Side: L R, LFE
Sampling rate                            : 48.0 KHz
Bit depth                                : 24 bits
Compression mode                         : Lossy
Delay relative to video                  : 11ms
Stream size                              : 958 MiB (10%)
Title                                    : DTS 5.1 ENG
Language                                 : English
Default                                  : No
Forced                                   : No

Text #1
ID                                       : 5
Format                                   : UTF-8
Codec ID                                 : S_TEXT/UTF8
Codec ID/Info                            : UTF-8 Plain Text
Title                                    : napisy PL.srt (OCR)
Language                                 : Polish
Default                                  : No
Forced                                   : No

Text #2
ID                                       : 6
Format                                   : UTF-8
Codec ID                                 : S_TEXT/UTF8
Codec ID/Info                            : UTF-8 Plain Text
Title                                    : napisy ENG.srt (OCR)
Language                                 : English
Default                                  : No
Forced                                   : No

Text #3
ID                                       : 7
Format                                   : PGS
Muxing mode                              : zlib
Codec ID                                 : S_HDMV/PGS
Codec ID/Info                            : The same subtitle format used on BDs/HD-DVDs
Title                                    : napisy PL.sup (BD)
Language                                 : Polish
Default                                  : No
Forced                                   : No

Text #4
ID                                       : 8
Format                                   : PGS
Muxing mode                              : zlib
Codec ID                                 : S_HDMV/PGS
Codec ID/Info                            : The same subtitle format used on BDs/HD-DVDs
Title                                    : napisy ENG.sup (BD)
Language                                 : English
Default                                  : No
Forced                                   : No

Source:
A/V-Sausage Party (2016) Blu-ray CEE 1080p AVC DD5.1- HDCLUB
Thanks - Sonda
Szczegóły torrenta
Hash
ab2d4a4681784a604fbdf6134a21b8708e785f4e
Główny tracker
http://agusiq-Darmowe-ToRenty.pl:6969/announce [EXTERNAL]
Aktualizacja
02/05/2017 17:36:31 (Kliknij na [uaktualnij] by odświeżyc statystyki seedów i leecherów).
Zobacz również
Komentarze


Brak komentarzy...


Wstecz