Witamy Guest Strona Główna Regulamin Kontakt
User: Hasło:
Stwórz darmowe konto Odzyskiwanie hasła i loginu

Kategorie
 » Wszystkie torrenty
Filmy
 » DVD-R1882  
 » VCD/SVCD75  
 » BluRay/x2644018  
 » DivX/XviD LEKTOR/NAPISY PL55434  
 » DivX/XviD ENG/...19081  
 » RMVB5948  
 » HD720  
 » 3D202  
Seriale
 » Seriale Polskie2374  
 » Seriale Zagraniczne13497  
Dla Dzieci
 » Bajki Pl/Eng1020  
Anime
 » Anime Pl114  
 » Anime1237  
Muzyka
 » Muzyka Polska/Zagraniczna15952  
 » Soundtracki292  
 » Teledyski/Koncerty1918  
Gry
 » Gry PC9520  
 » Gry PS2/PS3/PSP1072  
 » Gry Xbox1153  
 » Gry - Inne Konsole406  
GSM/PDA
 » Tapety GSM/PDA108  
 » Programy GSM/PDA313  
 » Filmy GSM/PDA123  
 » Dzwonki GSM/PDA113  
 » Gry GSM/PDA224  
Książki/Czasopisma
 » E-Booki9037  
 » Audio-Booki938  
 » Czasopisma863  
 » Komiksy623  
Programy
 » Windows10469  
 » Linux363  
 » Macintosh94  
Inne
 » Tapety2361  
 » Śmieszne72  
 » Sport897  
 » Pozostałe255  
Erotyka
 » Czasopisma110  
 » Zdjęcia 5958  
 » Filmy46984  
 » Gry 65  
 » Hentai+1853  
Archiwum


Prawdziwa historia Kota w Butach True Story of Puss N Boots *2009* [AC3 BRRip XviD] [Dubbing PL]

Kategoria: Bajki Pl/Eng
Wstawił:  viola62
Dodano: 10/01/2017
Rozmiar: 1.29 GB
Seedów: 0
Leecherów: 3
Komentarze: 0

Pobierz plik
...( Info )...

Produkcja: Francja
Gatunek: Animacja, Komedia
Data premiery: 31 lipca 2009 (Polska) 1 kwietnia 2009 (świat)
Reżyseria: Macha Makeïeff, Jérôme Deschamps
Scenariusz: Macha Makeïeff, Jérôme Deschamps

http://www.filmweb.pl/film/Prawdziwa+historia+Kota+w+Butach-2009-494957

http://www.imdb.com/title/tt1239462/?ref_=fn_al_tt_1

https://fdb.pl/film/196677-prawdziwa-historia-kota-w-butach

...( Opis )...

Młody młynarz dostaje w spadku dziwnego kota, który nie dość, że mówi, to jeszcze chodzi w butach, posiadających magiczną moc. Przy pomocy różnych sztuczek i z nieodłącznym humorem, kot pomoże swojemu nowemu panu zdobyć serce pięknej królewny, której największą życiową pasją jest taniec. Nie obejdzie się przy tym bez zasadzek, które na dzielną parę zastawiają różne typy spod ciemnej gwiazdy…

...( Obsada )...

Cezary Pazura ... Szambelan
Borys Szyc ... Kot w Butach
Piotr Fronczewski ... Ogr
Rafał Bryndal ... Błazen
Maryla Rodowicz ... Królowa
Tomasz Karolak ... Małpa

...( Dane Techniczne )...

Format                      : AVI
Format/Info                 : Audio Video Interleave
File size                   : 1.29 GiB
Duration                    : 1h 22mn
Overall bit rate            : 2 252 Kbps
Writing application         : VirtualDubMod 1.5.10.3 | www.virtualdub-fr.org || (build 2550/release)
Writing library             : VirtualDubMod build 2550/release

Video
ID                          : 0
Format                      : MPEG-4 Visual
Format profile              : Simple@L3
Format settings, BVOP       : No
Format settings, QPel       : No
Format settings, GMC        : No warppoints
Format settings, Matrix     : Default (H.263)
Codec ID                    : XVID
Codec ID/Hint               : XviD
Duration                    : 1h 22mn
Bit rate                    : 1 798 Kbps
Width                       : 720 pixels
Height                      : 400 pixels
Display aspect ratio        : 16:9
Frame rate                  : 24.000 fps
Color space                 : YUV
Chroma subsampling          : 4:2:0
Bit depth                   : 8 bits
Scan type                   : Progressive
Compression mode            : Lossy
Bits/(Pixel*Frame)          : 0.260
Stream size                 : 1.03 GiB (80%)
Writing library             : XviD 1.2.1 (UTC 2008-12-04)

Audio
ID                          : 1
Format                      : AC-3
Format/Info                 : Audio Coding 3
Mode extension              : CM (complete main)
Format settings, Endianness : Big
Codec ID                    : 2000
Duration                    : 1h 22mn
Bit rate mode               : Constant
Bit rate                    : 448 Kbps
Channel(s)                  : 6 channels
Channel positions           : Front: L C R, Side: L R, LFE
Sampling rate               : 48.0 KHz
Compression mode            : Lossy
Stream size                 : 263 MiB (20%)
Alignment                   : Split accross interleaves
Interleave, duration        : 128 ms (3.07 video frames)
Interleave, preload duratio : 128 ms

PS/ POBRALES ---------> SEEDUJ /THX/
Szczegóły torrenta
Hash
a5d9d58c195601a1bc2eec7fa398d68188b2dac6
Główny tracker
http://tracker.devil-Darmowe-ToRenty.pl/announce [EXTERNAL]
Aktualizacja
23/07/2017 16:04:12 (Kliknij na [uaktualnij] by odświeżyc statystyki seedów i leecherów).
Zobacz również
Komentarze


Brak komentarzy...


Wstecz