Witamy Guest Strona Główna Regulamin Kontakt
User: Hasło:
Stwórz darmowe konto Odzyskiwanie hasła i loginu

Kategorie
 » Wszystkie torrenty
Filmy
 » DVD-R1896  
 » VCD/SVCD75  
 » BluRay/x2644211  
 » DivX/XviD LEKTOR/NAPISY PL56445  
 » DivX/XviD ENG/...19083  
 » RMVB5949  
 » HD766  
 » 3D224  
Seriale
 » Seriale Polskie2567  
 » Seriale Zagraniczne14337  
Dla Dzieci
 » Bajki Pl/Eng1030  
Anime
 » Anime Pl115  
 » Anime1237  
Muzyka
 » Muzyka Polska/Zagraniczna16300  
 » Soundtracki298  
 » Teledyski/Koncerty1927  
Gry
 » Gry PC9701  
 » Gry PS2/PS3/PSP1074  
 » Gry Xbox1155  
 » Gry - Inne Konsole407  
GSM/PDA
 » Tapety GSM/PDA108  
 » Programy GSM/PDA313  
 » Filmy GSM/PDA123  
 » Dzwonki GSM/PDA113  
 » Gry GSM/PDA225  
Książki/Czasopisma
 » E-Booki9049  
 » Audio-Booki957  
 » Czasopisma865  
 » Komiksy626  
Programy
 » Windows10583  
 » Linux363  
 » Macintosh94  
Inne
 » Tapety2363  
 » Śmieszne72  
 » Sport900  
 » Pozostałe256  
Erotyka
 » Czasopisma110  
 » Zdjęcia 5979  
 » Filmy47685  
 » Gry 66  
 » Hentai+1853  
Archiwum


Jezus z Nazaretu Jesus of Nazareth *1977* [3CD] [DVDRip XviD AC3] [Lektor PL]

Kategoria: DivX/XviD LEKTOR/NAPISY PL
Wstawił:  viola62
Dodano: 04/01/2017
Rozmiar: 700.05 MB
Seedów: 0
Leecherów: 0
Komentarze: 0

Pobierz plik
...( Info )...

produkcja: ..... Wielka Brytania, Włochy
gatunek: ..... Biograficzny, Religijny, Dramat historyczny
data premiery: ..... 1977-04-03 (Świat)
reżyseria: ..... Franco Zeffirelli
scenariusz: ..... Franco Zeffirelli, Suso Cecchi d'Amico
zdjęcia:..... Armando Nannuzzi
muzyka: ..... Maurice Jarre
serial:..... epizody: 4

http://www.filmweb.pl/serial/Jezus+z+Nazaretu-1977-35269

http://www.imdb.com/title/tt0075520/?ref_=fn_al_tt_1

...( Opis )...

Wielu krytyków uważa go za film najlepszy w swoim gatunku, a z pewnością za najbardziej szczegółowy opis życia Jezusa. Film nie ogranicza się tylko do męczeństwa i śmierci Chrystusa, a prezentuje także jego wcześniejsze losy, także losy osób z Nim związanych. Film był ogromnym przedsięwzięciem, z wystawną scenografią i kostiumami. Bardzo dużym atutem dzieła jest gwiazdorska obsada, m.in.: Anne Bancroft (Maria Magdalena), Anthony Quinn (Kajfasz), Christopher Plummer (Herod Antypas) czy Michael York (Jan Chrzciciel). Najpiękniejszymi partiami filmu są sceny prezentujące Ostatnią Wieczerzę, scena sądu nad Chrystusem oraz kończące film Męka i Zmartwychwstanie.

...( Obsada )...

Michael York .............. Jan Baptysta
Yorgo Voyagis ............. Józef
Anthony Quinn ............ Caiaphas
Stacy Keach ............... Barabbas
Robert Powell ............ Jezus Chrystus
Peter Ustinov ............. Herod Wielki
Laurence Olivier ......... Nicodemus
Ian McShane .............. Judas Iscariot
Valentina Cortese ........ Herodias

...( Dane Techniczne )...

Format                      : AVI
Format/Info                 : Audio Video Interleave
File size                   : 700 MiB
Duration                    : 43mn 39s
Overall bit rate            : 2 241 Kbps
Writing application         : VirtualDubMod 1.5.4.1 (build 2178/release)
Writing library             : VirtualDubMod build 2178/release

Video
ID                          : 0
Format                      : MPEG-4 Visual
Format profile              : Advanced Simple@L5
Format settings, BVOP       : 1
Format settings, QPel       : No
Format settings, GMC        : No warppoints
Format settings, Matrix     : Custom
Codec ID                    : XVID
Codec ID/Hint               : XviD
Duration                    : 43mn 39s
Bit rate                    : 2 042 Kbps
Width                       : 720 pixels
Height                      : 544 pixels
Display aspect ratio        : 4:3
Frame rate                  : 25.000 fps
Color space                 : YUV
Chroma subsampling          : 4:2:0
Bit depth                   : 8 bits
Scan type                   : Progressive
Compression mode            : Lossy
Bits/(Pixel*Frame)          : 0.209
Stream size                 : 638 MiB (91%)
Writing library             : XviD 1.2.1 (UTC 2008-12-04)

Audio
ID                          : 1
Format                      : AC-3
Format/Info                 : Audio Coding 3
Mode extension              : CM (complete main)
Format settings, Endianness : Big
Codec ID                    : 2000
Duration                    : 43mn 39s
Bit rate mode               : Constant
Bit rate                    : 192 Kbps
Channel(s)                  : 2 channels
Channel positions           : Front: L R
Sampling rate               : 48.0 KHz
Compression mode            : Lossy
Stream size                 : 59.9 MiB (9%)
Alignment                   : Split accross interleaves
Interleave, duration        : 96 ms (2.40 video frames)
Interleave, preload duratio : 96 ms

PS/ POBRALES ---------> SEEDUJ /THX/
Szczegóły torrenta
Hash
a06f1df892ef6540874a1cc101fcc7db0ec49d2b
Aktualizacja
22/04/2017 06:31:11 (Kliknij na [uaktualnij] by odświeżyc statystyki seedów i leecherów).
Zobacz również
Komentarze


Brak komentarzy...


Wstecz