Witamy Guest Strona Główna Regulamin Kontakt
User: Hasło:
Stwórz darmowe konto Odzyskiwanie hasła i loginu

Kategorie
 » Wszystkie torrenty
Filmy
 » DVD-R1854  
 » VCD/SVCD75  
 » BluRay/x2643888  
 » DivX/XviD LEKTOR/NAPISY PL54357  
 » DivX/XviD ENG/...19079  
 » RMVB5947  
 » HD610  
 » 3D182  
Seriale
 » Seriale Polskie2360  
 » Seriale Zagraniczne13058  
Dla Dzieci
 » Bajki Pl/Eng1009  
Anime
 » Anime Pl106  
 » Anime1237  
Muzyka
 » Muzyka Polska/Zagraniczna15681  
 » Soundtracki288  
 » Teledyski/Koncerty1902  
Gry
 » Gry PC9383  
 » Gry PS2/PS3/PSP1072  
 » Gry Xbox1151  
 » Gry - Inne Konsole405  
GSM/PDA
 » Tapety GSM/PDA108  
 » Programy GSM/PDA311  
 » Filmy GSM/PDA122  
 » Dzwonki GSM/PDA111  
 » Gry GSM/PDA224  
Książki/Czasopisma
 » E-Booki9023  
 » Audio-Booki921  
 » Czasopisma855  
 » Komiksy612  
Programy
 » Windows10387  
 » Linux363  
 » Macintosh94  
Inne
 » Tapety2359  
 » Śmieszne72  
 » Sport883  
 » Pozostałe247  
Erotyka
 » Czasopisma110  
 » Zdjęcia 5944  
 » Filmy46286  
 » Gry 65  
 » Hentai+1853  
Archiwum


Księgowy The Accountant *2016* (60FPS) [720p DTS 5 1 AC3 BluRay x264 SONDA] [Napisy PL] [ENG]

Kategoria: HD
Wstawił:  Sonda
Dodano: 28/12/2016
Rozmiar: 9.95 GB
Seedów: 6
Leecherów: 4
Komentarze: 0

Pobierz plik


Księgowy - The Accountant *2016* (60FPS) 720p.BDRip.Sonda
============================================

gatunek: Dramat
produkcja: USA
premiera: 28 października 2016 (Polska) 6 października 2016 (świat)
reżyseria: Gavin O'Connor
scenariusz: Bill Dubuque

http://www.imdb.com/title/tt2140479/

Obsada:

Ben Affleck ...  Christian Wolff
Anna Kendrick ... Dana Cummings
J.K. Simmons ... Ray King
Jon Bernthal ... Brax
Jeffrey Tambor ... Francis Silverberg
Cynthia Addai-Robinson ... Marybeth Medina
John Lithgow ... Lamar Black
Jean Smart ... Rita Blackburn

Opis:

Affleck wciela się w postać Christiana Wolffa, geniusza matematycznego, którego więcej łączy z liczbami niż z ludźmi. Pod osłoną małomiasteczkowego biura rachunkowego pracuje dla najbardziej niebezpiecznych organizacji przestępczych na świecie w charakterze niezależnego księgowego. Kiedy Wydział ds. ścigania przestępstw Departamentu Skarbu, prowadzony przez Raya Kinga (Simmons), zaczyna się nim coraz bardziej interesować, Christian podejmuje współpracę z legalnym klientem - nowoczesną firmą specjalizującą się w dziedzinie robotyki. Jej księgowa (Kendrick) wykryła niezgodność opiewającą na miliony dolarów. Jednak, kiedy Christianowi udaje się uzyskać prawdziwy obraz sytuacji finansowej firmy i zbliżyć się do odkrycia prawdy, liczba ofiar zaczyna niebezpiecznie wzrastać.

Storyline:

Christian Wolff is a math savant with more affinity for numbers than people. Behind the cover of a small-town CPA office, he works as a freelance accountant for some of the world's most dangerous criminal organizations. With the Treasury Department's Crime Enforcement Division, run by Ray King, starting to close in, Christian takes on a legitimate client: a state-of-the-art robotics company where an accounting clerk has discovered a discrepancy involving millions of dollars. But as Christian uncooks the books and gets closer to the truth, it is the body count that starts to rise.

Screenshot:







Dane techniczne:

General
Format                                   : Matroska
Format version                           : Version 2
File size                                : 9.95 GiB
Duration                                 : 2h 7mn
Overall bit rate                         : 11.1 Mbps
Movie name                               : The.Accountant.2016.720p.BDRip.60FPS.Sonda
Encoded date                             : UTC 2016-12-27 07:07:11
Writing application                      : mkvmerge v5.7.0 ('The Whirlwind&#039 built on Jul  8 2012 20:08:51
Writing library                          : libebml v1.2.3 + libmatroska v1.3.0

Video
ID                                       : 1
Format                                   : AVC
Format/Info                              : Advanced Video Codec
Format profile                           : High@L4.1
Format settings, CABAC                   : Yes
Format settings, ReFrames                : 6 frames
Codec ID                                 : V_MPEG4/ISO/AVC
Duration                                 : 2h 7mn
Bit rate                                 : 9 000 Kbps
Width                                    : 1 280 pixels
Height                                   : 536 pixels
Display aspect ratio                     : 2.40:1
Frame rate mode                          : Constant
Frame rate                               : 60.000 fps
Original frame rate                      : 59.940 fps
Color space                              : YUV
Chroma subsampling                       : 4:2:0
Bit depth                                : 8 bits
Scan type                                : Progressive
Bits/(Pixel*Frame)                       : 0.219
Stream size                              : 7.83 GiB (79%)
Title                                    : 60FPS Rip by Sonda
Writing library                          : x264
Encoding settings                        : cabac=1 / ref=6 / deblock=1:-1:-1 / rc=2pass
Default                                  : Yes
Forced                                   : No

Audio #1
ID                                       : 2
Format                                   : AC-3
Format/Info                              : Audio Coding 3
Mode extension                           : CM (complete main)
Format settings, Endianness              : Big
Codec ID                                 : A_AC3
Duration                                 : 2h 7mn
Bit rate mode                            : Constant
Bit rate                                 : 640 Kbps
Channel count                            : 6 channels
Channel positions                        : Front: L C R, Side: L R, LFE
Sampling rate                            : 48.0 KHz
Bit depth                                : 16 bits
Compression mode                         : Lossy
Stream size                              : 585 MiB (6%)
Title                                    : AC3 5.1 ENG
Language                                 : English
Default                                  : Yes
Forced                                   : Yes

Audio #2
ID                                       : 3
Format                                   : DTS
Format/Info                              : Digital Theater Systems
Mode                                     : 16
Format settings, Endianness              : Big
Codec ID                                 : A_DTS
Duration                                 : 2h 7mn
Bit rate mode                            : Constant
Bit rate                                 : 1 509 Kbps
Channel count                            : 6 channels
Channel positions                        : Front: L C R, Side: L R, LFE
Sampling rate                            : 48.0 KHz
Bit depth                                : 16 bits
Compression mode                         : Lossy
Stream size                              : 1.35 GiB (14%)
Title                                    : DTS 5.1 ENG
Language                                 : English
Default                                  : No
Forced                                   : No

Text #1
ID                                       : 4
Format                                   : UTF-8
Codec ID                                 : S_TEXT/UTF8
Codec ID/Info                            : UTF-8 Plain Text
Title                                    : napisy ENG.srt
Language                                 : English
Default                                  : No
Forced                                   : No

Text #2
ID                                       : 5
Format                                   : UTF-8
Codec ID                                 : S_TEXT/UTF8
Codec ID/Info                            : UTF-8 Plain Text
Title                                    : napisy PL.srt
Language                                 : Polish
Default                                  : Yes
Forced                                   : Yes

Source:
A/V-BDRemux
Thanks - Sonda

Szczegóły torrenta
Hash
99955d2e68f7f7d5d0e69ba0d1579e9f0e35dd50
Główny tracker
http://agusiq-Darmowe-ToRenty.pl:6969/announce [EXTERNAL]
Aktualizacja
03/05/2017 11:07:09 (Kliknij na [uaktualnij] by odświeżyc statystyki seedów i leecherów).
Zobacz również
Komentarze


Brak komentarzy...


Wstecz