Witamy Guest Strona Główna Regulamin Kontakt
User: Hasło:
Stwórz darmowe konto Odzyskiwanie hasła i loginu

Kategorie
 » Wszystkie torrenty
Filmy
 » DVD-R1859  
 » VCD/SVCD75  
 » BluRay/x2643891  
 » DivX/XviD LEKTOR/NAPISY PL54418  
 » DivX/XviD ENG/...19079  
 » RMVB5948  
 » HD614  
 » 3D183  
Seriale
 » Seriale Polskie2360  
 » Seriale Zagraniczne13091  
Dla Dzieci
 » Bajki Pl/Eng1009  
Anime
 » Anime Pl107  
 » Anime1237  
Muzyka
 » Muzyka Polska/Zagraniczna15693  
 » Soundtracki288  
 » Teledyski/Koncerty1902  
Gry
 » Gry PC9401  
 » Gry PS2/PS3/PSP1072  
 » Gry Xbox1151  
 » Gry - Inne Konsole406  
GSM/PDA
 » Tapety GSM/PDA108  
 » Programy GSM/PDA311  
 » Filmy GSM/PDA122  
 » Dzwonki GSM/PDA113  
 » Gry GSM/PDA224  
Książki/Czasopisma
 » E-Booki9030  
 » Audio-Booki924  
 » Czasopisma855  
 » Komiksy623  
Programy
 » Windows10387  
 » Linux363  
 » Macintosh94  
Inne
 » Tapety2359  
 » Śmieszne72  
 » Sport885  
 » Pozostałe247  
Erotyka
 » Czasopisma110  
 » Zdjęcia 5945  
 » Filmy46316  
 » Gry 65  
 » Hentai+1853  
Archiwum


Mechanik: Konfrontacja Mechanic: Resurrection *2016* (60FPS) [720p DTS 5 1 AC3 BluRay x264 SONDA] [Napisy PL] [ENG]

Kategoria: HD
Wstawił:  Sonda
Dodano: 13/11/2016
Rozmiar: 8.53 GB
Seedów: 1
Leecherów: 0
Komentarze: 0

Pobierz plik


Mechanik: Konfrontacja - Mechanic: Resurrection *2016* (60FPS) 720p.BDRip-Sonda
====================================================

gatunek: Akcja
produkcja: Francja,USA,Tajlandia
premiera: 26 sierpnia 2016 (Polska) 24 sierpnia 2016 (świat)
reżyseria: Dennis Gansel
scenariusz: Tony Mosher,Philip Shelby,Rachel Long,Brian Pittman

http://www.imdb.com/title/tt3522806/

Obsada:

Jason Statham ... Arthur Bishop
Jessica Alba ... Gina
Tommy Lee Jones ...Max Adams
Michelle Yeoh ... Mei
Sam Hazeldine ... Crain
John Cenatiempo ... Jeremy
Toby Eddington ... Adrian Cook

Opis:

Arthur Bishop w kręgach wtajemniczonych uważany jest za najskuteczniejszego zawodowego eliminatora na świecie. Jego ofiary znikają bez śladu, a okoliczności zawsze wskazują na nieszczęśliwy wypadek. Po latach „kariery” Bishop postanawia zerwać z krwawą przeszłością, by zacząć nowe życie u boku ukochanej kobiety. Niestety w jego branży nie przewiduje się wcześniejszych emerytur. Największy wróg Bishopa znów daje znać o sobie. Uprowadza jego ukochaną i wyznacza za jej życie cenę. Kobieta przeżyje jeśli Bishop wykona trzy niemal niewykonalne zlecenia w różnych częściach świata. Plan genialny w swej prostocie. Ale Bishop nie lubi być częścią cudzych planów.

Storyline:

Arthur Bishop, the master assassin who faked his death in hopes of putting that part of his ;life behind him, now lives a quiet life in Rio. But someone who knows who he is shows up and tells him, that if he wants to continue living this life, he will do three jobs for someone. Bishop tries to tell them he has the wrong man but they know who he is and if he won't do the job, they will take him but he gets away. He then goes to a resort in Thailand run by a friend, Mae, where he tries to find out who is looking for him. Later a woman named Gina shows up looking for medical assistance and Mae can't help but notice bruises all over her body. Mae deduces she's a battered woman and when Mae hears her being beaten, Mae asks Bishop to help her. He goes and kills the guy she's with. He kills the man and then sets fire to the boat he's on. But he sees that Gina has a photo of him. He deduces that they one who wants him, sent her. He confronts her and she admits that she works at a children's ...

Screenshot:







Dane techniczne:

General
Format                                   : Matroska
Format version                           : Version 2
File size                                : 8.53 GiB
Duration                                 : 1h 38mn
Overall bit rate                         : 12.4 Mbps
Movie name                               : Mechanic.Resurrection.2016.720p.BDRip.60FPS.Sonda
Encoded date                             : UTC 2016-11-13 07:46:37
Writing application                      : mkvmerge v5.7.0 ('The Whirlwind&#039 built on Jul  8 2012 20:08:51
Writing library                          : libebml v1.2.3 + libmatroska v1.3.0

Video
ID                                       : 1
Format                                   : AVC
Format/Info                              : Advanced Video Codec
Format profile                           : High@L4.1
Format settings, CABAC                   : Yes
Format settings, ReFrames                : 6 frames
Codec ID                                 : V_MPEG4/ISO/AVC
Duration                                 : 1h 38mn
Bit rate                                 : 11.0 Mbps
Width                                    : 1 280 pixels
Height                                   : 536 pixels
Display aspect ratio                     : 2.40:1
Frame rate mode                          : Constant
Frame rate                               : 60.000 fps
Original frame rate                      : 59.940 fps
Color space                              : YUV
Chroma subsampling                       : 4:2:0
Bit depth                                : 8 bits
Scan type                                : Progressive
Bits/(Pixel*Frame)                       : 0.267
Stream size                              : 7.40 GiB (87%)
Title                                    : 60FPS Rip by Sonda
Writing library                          : x264
Encoding settings                        : cabac=1 / ref=6 / deblock=1:-1:-1 / rc=2pass
Default                                  : Yes
Forced                                   : No

Audio #1
ID                                       : 2
Format                                   : AC-3
Format/Info                              : Audio Coding 3
Mode extension                           : CM (complete main)
Format settings, Endianness              : Big
Codec ID                                 : A_AC3
Duration                                 : 1h 38mn
Bit rate mode                            : Constant
Bit rate                                 : 640 Kbps
Channel count                            : 6 channels
Channel positions                        : Front: L C R, Side: L R, LFE
Sampling rate                            : 48.0 KHz
Bit depth                                : 16 bits
Compression mode                         : Lossy
Stream size                              : 452 MiB (5%)
Title                                    : AC3 5.1 ENG
Language                                 : English
Default                                  : Yes
Forced                                   : Yes

Audio #2
ID                                       : 3
Format                                   : DTS
Format/Info                              : Digital Theater Systems
Mode                                     : 16
Format settings, Endianness              : Big
Codec ID                                 : A_DTS
Duration                                 : 1h 38mn
Bit rate mode                            : Constant
Bit rate                                 : 755 Kbps
Channel count                            : 6 channels
Channel positions                        : Front: L C R, Side: L R, LFE
Sampling rate                            : 48.0 KHz
Bit depth                                : 24 bits
Compression mode                         : Lossy
Stream size                              : 532 MiB (6%)
Title                                    : DTS 5.1 ENG
Language                                 : English
Default                                  : No
Forced                                   : No

Text #1
ID                                       : 4
Format                                   : UTF-8
Codec ID                                 : S_TEXT/UTF8
Codec ID/Info                            : UTF-8 Plain Text
Title                                    : napisy PL.srt
Language                                 : Polish
Default                                  : Yes
Forced                                   : Yes

Text #2
ID                                       : 5
Format                                   : UTF-8
Codec ID                                 : S_TEXT/UTF8
Codec ID/Info                            : UTF-8 Plain Text
Title                                    : napisy ENG.srt
Language                                 : English
Default                                  : No
Forced                                   : No

Text #3
ID                                       : 6
Format                                   : PGS
Muxing mode                              : zlib
Codec ID                                 : S_HDMV/PGS
Codec ID/Info                            : The same subtitle format used on BDs/HD-DVDs
Title                                    : napisy ENG.sup
Language                                 : English
Default                                  : No
Forced                                   : No

Source:
A/V-Mechanic: Resurrection (2016) 1080p BD-Remux- HDCLUB
DTS 5.1 from TrueHD 7.1
Thanks - Sonda




Szczegóły torrenta
Hash
98d2a3c12b463b923a83df44961c42bc7163349c
Główny tracker
http://agusiq-Darmowe-ToRenty.pl:6969/announce [EXTERNAL]
Aktualizacja
23/05/2017 02:48:56 (Kliknij na [uaktualnij] by odświeżyc statystyki seedów i leecherów).
Zobacz również
Komentarze


Brak komentarzy...


Wstecz