Witamy Guest Strona Główna Regulamin Kontakt
User: Hasło:
Stwórz darmowe konto Odzyskiwanie hasła i loginu

Kategorie
 » Wszystkie torrenty
Filmy
 » DVD-R1872  
 » VCD/SVCD75  
 » BluRay/x2643932  
 » DivX/XviD LEKTOR/NAPISY PL54860  
 » DivX/XviD ENG/...19080  
 » RMVB5948  
 » HD678  
 » 3D194  
Seriale
 » Seriale Polskie2367  
 » Seriale Zagraniczne13284  
Dla Dzieci
 » Bajki Pl/Eng1011  
Anime
 » Anime Pl113  
 » Anime1237  
Muzyka
 » Muzyka Polska/Zagraniczna15889  
 » Soundtracki290  
 » Teledyski/Koncerty1908  
Gry
 » Gry PC9467  
 » Gry PS2/PS3/PSP1072  
 » Gry Xbox1153  
 » Gry - Inne Konsole406  
GSM/PDA
 » Tapety GSM/PDA108  
 » Programy GSM/PDA311  
 » Filmy GSM/PDA123  
 » Dzwonki GSM/PDA113  
 » Gry GSM/PDA224  
Książki/Czasopisma
 » E-Booki9035  
 » Audio-Booki938  
 » Czasopisma863  
 » Komiksy623  
Programy
 » Windows10420  
 » Linux363  
 » Macintosh94  
Inne
 » Tapety2359  
 » Śmieszne72  
 » Sport895  
 » Pozostałe254  
Erotyka
 » Czasopisma110  
 » Zdjęcia 5948  
 » Filmy46670  
 » Gry 65  
 » Hentai+1853  
Archiwum


Piotruś Pan *1953* [DVDRip XviD] [AC3] [ [Dubbing PL]

Kategoria: Bajki Pl/Eng
Wstawił:  viola62
Dodano: 10/01/2017
Rozmiar: 843.75 MB
Seedów: 0
Leecherów: 2
Komentarze: 0

Pobierz plik
...( Info )...

Premiera: 1953 (5 luty)
Produkcja: USA
Gatunek: Animacja, Musical, Basn
Czas filmu: 75 minut
Rezyseria: Hamilton Luske, Wilfred Jackson

http://www.filmweb.pl/film/Piotru%C5%9B+Pan-1953-35151

http://www.imdb.com/title/tt0046183/?ref_=nv_sr_3

https://fdb.pl/film/1685-piotrus-pan

...( Opis )...

Mieszkający w Nibylandii chłopiec, który nigdy nie chciał dorosnąć, zjawia się w domu Darlingów, aby wraz z dziećmi wyruszyć do swojej krainy.

...( Obsada )...

Krystyna Chimanienko--------------------------Piotrus Pan
Danuta Przesmycka------------------------------Wanda
Zofia Raciborska-----------------------------------Michas
Jdwiga Siennicka----------------------------------Janek
Ludwik Benoit---------------------------------------Kapitan Hak
Mieczyslaw Pawlikowski--------------------------Pan Darling
Kazimierz Wichniarz--------------------------------Wielki Wodz

...( Dane Techniczne )...

Format                      : AVI
Format/Info                 : Audio Video Interleave
File size                   : 843 MiB
Duration                    : 1h 16mn
Overall bit rate            : 1 535 Kbps
Writing application         : Lavf52.57.1

Video
ID                          : 0
Format                      : xvid
Codec ID                    : xvid
Duration                    : 1h 16mn
Bit rate                    : 1 338 Kbps
Width                       : 640 pixels
Height                      : 480 pixels
Display aspect ratio        : 4:3
Frame rate                  : 23.976 fps
Bits/(Pixel*Frame)          : 0.182
Stream size                 : 735 MiB (87%)

Audio
ID                          : 1
Format                      : AC-3
Format/Info                 : Audio Coding 3
Mode extension              : CM (complete main)
Format settings, Endianness : Big
Codec ID                    : 2000
Duration                    : 1h 16mn
Bit rate mode               : Constant
Bit rate                    : 128 Kbps
Channel(s)                  : 2 channels
Channel positions           : Front: L R
Sampling rate               : 44.1 KHz
Bit depth                   : 16 bits
Compression mode            : Lossy
Stream size                 : 70.3 MiB (8%)
Alignment                   : Aligned on interleaves

PS/ POBRALES ------> SEEDUJ /THX/
Szczegóły torrenta
Hash
8fdd8ec15c25614654c92e4ed78fdfa326a04758
Główny tracker
http://tracker.devil-Darmowe-ToRenty.pl/announce [EXTERNAL]
Aktualizacja
26/03/2017 18:17:39 (Kliknij na [uaktualnij] by odświeżyc statystyki seedów i leecherów).
Zobacz również
Komentarze


Brak komentarzy...


Wstecz