Witamy Guest Strona Główna Regulamin Kontakt
User: Hasło:
Stwórz darmowe konto Odzyskiwanie hasła i loginu

Kategorie
 » Wszystkie torrenty
Filmy
 » DVD-R1826  
 » VCD/SVCD74  
 » BluRay/x2643726  
 » DivX/XviD LEKTOR/NAPISY PL52795  
 » DivX/XviD ENG/...19078  
 » RMVB5947  
 » HD543  
 » 3D155  
Seriale
 » Seriale Polskie2290  
 » Seriale Zagraniczne12094  
Dla Dzieci
 » Bajki Pl/Eng1000  
Anime
 » Anime Pl105  
 » Anime1237  
Muzyka
 » Muzyka Polska/Zagraniczna15529  
 » Soundtracki284  
 » Teledyski/Koncerty1891  
Gry
 » Gry PC9251  
 » Gry PS2/PS3/PSP1072  
 » Gry Xbox1151  
 » Gry - Inne Konsole405  
GSM/PDA
 » Tapety GSM/PDA108  
 » Programy GSM/PDA285  
 » Filmy GSM/PDA122  
 » Dzwonki GSM/PDA111  
 » Gry GSM/PDA220  
Ksi±żki/Czasopisma
 » E-Booki8973  
 » Audio-Booki839  
 » Czasopisma847  
 » Komiksy610  
Programy
 » Windows10306  
 » Linux363  
 » Macintosh94  
Inne
 » Tapety2357  
 » ¦mieszne72  
 » Sport881  
 » Pozostałe246  
Erotyka
 » Czasopisma107  
 » Zdjęcia 5935  
 » Filmy45613  
 » Gry 65  
 » Hentai+1853  
Archiwum


Piotru¶ Pan *1953* [DVDRip XviD] [AC3] [ [Dubbing PL]

Kategoria: Bajki Pl/Eng
Wstawił:  viola62
Dodano: 10/01/2017
Rozmiar: 843.75 MB
Seedów: 0
Leecherów: 2
Komentarze: 0

Pobierz plik
...( Info )...

Premiera: 1953 (5 luty)
Produkcja: USA
Gatunek: Animacja, Musical, Basn
Czas filmu: 75 minut
Rezyseria: Hamilton Luske, Wilfred Jackson

http://www.filmweb.pl/film/Piotru%C5%9B+Pan-1953-35151

http://www.imdb.com/title/tt0046183/?ref_=nv_sr_3

https://fdb.pl/film/1685-piotrus-pan

...( Opis )...

Mieszkaj±cy w Nibylandii chłopiec, który nigdy nie chciał dorosn±ć, zjawia się w domu Darlingów, aby wraz z dziećmi wyruszyć do swojej krainy.

...( Obsada )...

Krystyna Chimanienko--------------------------Piotrus Pan
Danuta Przesmycka------------------------------Wanda
Zofia Raciborska-----------------------------------Michas
Jdwiga Siennicka----------------------------------Janek
Ludwik Benoit---------------------------------------Kapitan Hak
Mieczyslaw Pawlikowski--------------------------Pan Darling
Kazimierz Wichniarz--------------------------------Wielki Wodz

...( Dane Techniczne )...

Format                      : AVI
Format/Info                 : Audio Video Interleave
File size                   : 843 MiB
Duration                    : 1h 16mn
Overall bit rate            : 1 535 Kbps
Writing application         : Lavf52.57.1

Video
ID                          : 0
Format                      : xvid
Codec ID                    : xvid
Duration                    : 1h 16mn
Bit rate                    : 1 338 Kbps
Width                       : 640 pixels
Height                      : 480 pixels
Display aspect ratio        : 4:3
Frame rate                  : 23.976 fps
Bits/(Pixel*Frame)          : 0.182
Stream size                 : 735 MiB (87%)

Audio
ID                          : 1
Format                      : AC-3
Format/Info                 : Audio Coding 3
Mode extension              : CM (complete main)
Format settings, Endianness : Big
Codec ID                    : 2000
Duration                    : 1h 16mn
Bit rate mode               : Constant
Bit rate                    : 128 Kbps
Channel(s)                  : 2 channels
Channel positions           : Front: L R
Sampling rate               : 44.1 KHz
Bit depth                   : 16 bits
Compression mode            : Lossy
Stream size                 : 70.3 MiB (8%)
Alignment                   : Aligned on interleaves

PS/ POBRALES ------> SEEDUJ /THX/
Szczegóły torrenta
Hash
8fdd8ec15c25614654c92e4ed78fdfa326a04758
Główny tracker
http://tracker.devil-Darmowe-ToRenty.pl/announce [EXTERNAL]
Aktualizacja
18/02/2017 07:39:47 (Kliknij na [uaktualnij] by od¶wieżyc statystyki seedów i leecherów).
Zobacz również
Komentarze


Brak komentarzy...


Wstecz