Witamy Guest (Zaloguj) Strona Główna Regulamin Kontakt
User: Hasło:
Stwórz darmowe konto Odzyskiwanie hasła i loginu

Kategorie
 » Wszystkie torrenty
Filmy :
 » DVD-R1836  
 » VCD/SVCD74  
 » BluRay/x2643780  
 » DivX/XviD LEKTOR/NAPISY PL52988  
 » DivX/XviD ENG/...19082  
 » RMVB6000  
 » HD544  
 » 3D155  
Seriale :
 » Seriale Polskie2313  
 » Seriale Zagraniczne12405  
Dla Dzieci :
 » Bajki Pl/Eng991  
Anime :
 » Anime Pl116  
 » Anime1328  
Muzyka :
 » Muzyka Polska/Zagraniczna16129  
 » Soundtracki298  
 » Teledyski/Koncerty1958  
Gry :
 » Gry PC9306  
 » Gry PS2/PS3/PSP1082  
 » Gry Xbox1162  
 » Gry - Inne Konsole467  
GSM/PDA :
 » Tapety GSM/PDA110  
 » Programy GSM/PDA287  
 » Filmy GSM/PDA122  
 » Dzwonki GSM/PDA111  
 » Gry GSM/PDA220  
Ksiazki/Czasopisma :
 » E-Booki9018  
 » Audio-Booki834  
 » Czasopisma871  
 » Komiksy614  
Programy :
 » Windows10822  
 » Linux386  
 » Macintosh94  
Inne :
 » Tapety2380  
 » ¦mieszne72  
 » Sport934  
 » Pozostale247  
Erotyka :
 » Czasopisma109  
 » Zdjęcia 5952  
 » Filmy50967  
 » Gry 65  
 » Hentai+1853  


Piotru¶ Pan *1953* [DVDRip XviD] [AC3] [ [Dubbing PL]

Kategoria: Bajki Pl/Eng
Wystawil:  viola62
Data: 10/01/2017
Rozmiar: 843.75 MB
Seedow: 1
Leecherow: 4




Pobierz Torrent
...( Info )...

Premiera: 1953 (5 luty)
Produkcja: USA
Gatunek: Animacja, Musical, Basn
Czas filmu: 75 minut
Rezyseria: Hamilton Luske, Wilfred Jackson

http://www.filmweb.pl/film/Piotru%C5%9B+Pan-1953-35151

http://www.imdb.com/title/tt0046183/?ref_=nv_sr_3

https://fdb.pl/film/1685-piotrus-pan

...( Opis )...

Mieszkaj±cy w Nibylandii chłopiec, który nigdy nie chciał dorosn±ć, zjawia się w domu Darlingów, aby wraz z dziećmi wyruszyć do swojej krainy.

...( Obsada )...

Krystyna Chimanienko--------------------------Piotrus Pan
Danuta Przesmycka------------------------------Wanda
Zofia Raciborska-----------------------------------Michas
Jdwiga Siennicka----------------------------------Janek
Ludwik Benoit---------------------------------------Kapitan Hak
Mieczyslaw Pawlikowski--------------------------Pan Darling
Kazimierz Wichniarz--------------------------------Wielki Wodz

...( Dane Techniczne )...

Format                      : AVI
Format/Info                 : Audio Video Interleave
File size                   : 843 MiB
Duration                    : 1h 16mn
Overall bit rate            : 1 535 Kbps
Writing application         : Lavf52.57.1

Video
ID                          : 0
Format                      : xvid
Codec ID                    : xvid
Duration                    : 1h 16mn
Bit rate                    : 1 338 Kbps
Width                       : 640 pixels
Height                      : 480 pixels
Display aspect ratio        : 4:3
Frame rate                  : 23.976 fps
Bits/(Pixel*Frame)          : 0.182
Stream size                 : 735 MiB (87%)

Audio
ID                          : 1
Format                      : AC-3
Format/Info                 : Audio Coding 3
Mode extension              : CM (complete main)
Format settings, Endianness : Big
Codec ID                    : 2000
Duration                    : 1h 16mn
Bit rate mode               : Constant
Bit rate                    : 128 Kbps
Channel(s)                  : 2 channels
Channel positions           : Front: L R
Sampling rate               : 44.1 KHz
Bit depth                   : 16 bits
Compression mode            : Lossy
Stream size                 : 70.3 MiB (8%)
Alignment                   : Aligned on interleaves

PS/ POBRALES ------> SEEDUJ /THX/
Szczegoly torrenta
Info Hash
8fdd8ec15c25614654c92e4ed78fdfa326a04758
Tracker
http://tracker.devil-Darmowe-ToRenty.pl/announce [EXTERNAL]
Uaktualnienie
24/01/2017 19:22:17 (Jeżeli nie widać seeda kliknij na [uaktualnij] by od¶wieżyc statystyki).
Komentarze


Brak komentarzy...


Wstecz