Witamy Guest (Zaloguj) Strona Główna Kontakt Regulamin
User: Hasło:
Stwórz konto Odzyskiwanie hasła

Kategorie
Filmy :
 » Filmy DVD-R1088  
 » Filmy VCD/SVCD75  
 » Filmy BluRay/x2641479  
 » Filmy DivX/XviD28827  
 » Filmy RMVB5592  
Seriale :
 » Seriale Polskie1588  
 » Seriale Zagraniczne4817  
Anime :
 » Anime Pl135  
 » Anime1179  
Dla Dzieci :
 » Bajki Pl/Eng874  
Muzyka :
 » Muzyka Polska/Zagraniczna12320  
 » Soundtracki297  
 » Teledyski/Koncerty1697  
Gry :
 » Gry PC5072  
 » Gry PS2/PS3/PSP794  
 » Gry Xbox915  
 » Gry - Inne Konsole419  
GSM/PDA :
 » Tapety GSM/PDA100  
 » Programy GSM/PDA210  
 » Filmy GSM/PDA122  
 » Dzwonki GSM/PDA103  
 » Gry GSM/PDA175  
Ksiazki/Czasopisma :
 » E-Booki1040  
 » Audio-Booki463  
 » Czasopisma518  
 » Komiksy215  
Programy :
 » Windows9075  
 » Linux381  
 » Macintosh82  
Inne :
 » Śmieszne67  
 » Tapety2305  
 » Sport852  
 » Pozostale147  
Erotyka :
 » Czasopisma101  
 » Zdjęcia 1005  
 » Filmy8115  
 » Gry 58  
 » Hentai+1853  

Saga Klątwa Cienia Dragon Lore: Curse of the Shadow *2013* [BDRip XViD] [Lektor PL IVO]

Kategoria: Filmy DivX/XviD
Wystawil:  Romeo
Data: 17/06/2013
Rozmiar: 696.64 MB
Seedów: 0
Leecherów: 0
Pobrano: ---

Uaktualnij


Pobierz Torrent





Saga Klątwa Cienia - Dragon Lore: Curse of the Shadow *2013*
=================================================

INFO:

Produkcja.: USA
Gatunek.: Akcja, Fantasy
Czas trwania: 100 min.
Premiera: 12.08.2013 - Świat (DVD)
Reżyseria: John Lyde
Scenariusz: Jason Faller, Kynan Griffin

OPIS:

Nemyt, wojowniczka elfów, zabija smoka, którego dosiadał wielki szaman orków, Fangtor Bloodmoon. Ten nie zamierza jednak się poddać i Nemyt będzie musiała stoczyć ciężki bój z jego hordami, by zdobyć jego głowę.

OBSADA:

Danielle Chuchran
Richard McWilliams
Paul D. Hunt
James C. Morris
Eve Mauro
Danny James

DANE TECH:

Video
ID : 0
Format : MPEG-4 Visual
Format profile : Advanced Simple@L5
Format settings, BVOP : 2
Format settings, QPel : No
Format settings, GMC : No warppoints
Format settings, Matrix : Default (H.263)
Codec ID : XVID
Codec ID/Hint : XviD
Duration : 1h 45mn
Bit rate : 788 Kbps
Width : 640 pixels
Height : 352 pixels
Display aspect ratio : 16:9
Frame rate : 23.976 fps
Color space : YUV
Chroma subsampling : 4:2:0
Bit depth : 8 bits
Scan type : Progressive
Compression mode : Lossy
Bits/(Pixel*Frame) : 0.146
Stream size : 593 MiB (85%)
Writing library : XviD 1.2.1 (UTC 2008-12-04)

Audio
ID : 1
Format : MPEG Audio
Format version : Version 1
Format profile : Layer 3
Codec ID : 55
Codec ID/Hint : MP3
Duration : 1h 45mn
Bit rate mode : Constant
Bit rate : 128 Kbps
Channel(s) : 2 channels
Sampling rate : 48.0 KHz
Compression mode : Lossy
Stream size : 96.3 MiB (14%)
Alignment : Aligned on interleaves
Interleave, duration : 42 ms (1.00 video frame)
Interleave, preload duration : 504 ms
Writing library : LAME3.99r
Encoding settings : -m s -V 4 -q 3 -lowpass 17 -b 128
Szczególy torrenta
Info Hash
8397a4882c6b1d5b3f88a5479e90a805029986c3
Tracker
http://94.228.192.98/announce [EXTERNAL]
Uaktualnienie
30/03/2014 16:20:19 (Jezeli nie widac seeda kliknij na [uaktualnij] by odswiezyc statystyki).
Pokaz/Ukryj Pliki:
6 pliki
Ocena:
N/A
Komentarze


Brak komentarzy...


Wstecz