Witamy Guest Strona Główna Regulamin Kontakt
User: Hasło:
Stwórz darmowe konto Odzyskiwanie hasła i loginu

Kategorie
 » Wszystkie torrenty
Filmy
 » DVD-R1896  
 » VCD/SVCD75  
 » BluRay/x2644211  
 » DivX/XviD LEKTOR/NAPISY PL56445  
 » DivX/XviD ENG/...19083  
 » RMVB5949  
 » HD766  
 » 3D224  
Seriale
 » Seriale Polskie2567  
 » Seriale Zagraniczne14337  
Dla Dzieci
 » Bajki Pl/Eng1030  
Anime
 » Anime Pl115  
 » Anime1237  
Muzyka
 » Muzyka Polska/Zagraniczna16300  
 » Soundtracki298  
 » Teledyski/Koncerty1927  
Gry
 » Gry PC9701  
 » Gry PS2/PS3/PSP1074  
 » Gry Xbox1155  
 » Gry - Inne Konsole407  
GSM/PDA
 » Tapety GSM/PDA108  
 » Programy GSM/PDA313  
 » Filmy GSM/PDA123  
 » Dzwonki GSM/PDA113  
 » Gry GSM/PDA225  
Książki/Czasopisma
 » E-Booki9049  
 » Audio-Booki957  
 » Czasopisma865  
 » Komiksy626  
Programy
 » Windows10583  
 » Linux363  
 » Macintosh94  
Inne
 » Tapety2363  
 » Śmieszne72  
 » Sport900  
 » Pozostałe256  
Erotyka
 » Czasopisma110  
 » Zdjęcia 5979  
 » Filmy47685  
 » Gry 66  
 » Hentai+1853  
Archiwum


Siedmiu krasnoludkow ratuje Spiaca Krolewne *2014* [DVDRip XviD AC3] [Lektor PL]

Kategoria: Bajki Pl/Eng
Wstawił:  viola62
Dodano: 08/01/2017
Rozmiar: 1.42 GB
Seedów: 0
Leecherów: 2
Komentarze: 0

Pobierz plik
...( Info )...

Tytuł: Der 7bte Zwerg
Tytuł PL: Siedmiu krasnoludków ratuje Śpiącą Królewnę
Reżyseria: Boris Aljinovic, Harald Siepermann
Scenariusz: Harald Siepermann,Sven Unterwaldt,Daniel Welbat,
Douglas Welbat
Gatunek: Animacja, Przygodowy, Baśń
Produkcja: Niemcy
Premiera: 14 listopada 2014 (Polska) 21 sierpnia 2014 (świat)
Muzyka: Daniel Welbat, Stephan Gade

http://www.filmweb.pl/film/Siedmiu+krasnoludk%C3%B3w+ratuje+%C5%9Api%C4%85c%C4%85+Kr%C3%B3lewn%C4%99-2014-703047

https://fdb.pl/film/571186-siedmiu-krasnoludkow-ratuje-spiaca-krolewne

http://www.imdb.com/title/tt2914892/?ref_=fn_al_tt_1

...( Opis )...

Krasnoludek Bobo przypadkowo wywołuje wielkie zamieszanie w Zamku Fantabularasa. Przez jego niezdarność księżniczka Róża
wraz z całym dworem pada ofiarą klątwy złej wiedźmy i zapada w 100-letni sen. Zły czar zdjąć może tylko pocałunek
prawdziwej miłości. Problem w tym, że ukochany księżniczki – poczciwy kuchcik – trafił do niewoli strasznego smoka.
Krasnoludki, chcąc naprawić błąd Bobo, sprowadzić chłopca do zamku i pokonać klątwę, wyruszają z misją ratunkową.
Czeka ich nie lada wyzwanie, bo legowisko smoka znajduje się nieopodal siedziby złej czarownicy Dellamorty, tej samej,
która rzuciła czar na Różę i bardzo nie lubi nieproszonych gości.

...( Obsada )...

Joshua Graham ........... Bobo
Matt Gilbert ............ Tschakko
Al Parrish .............. Cloudy
Geoff May ............... Sunny
Joe Marth ............... Cooky

...( Dane Techniczne )...

Format                      : AVI
Format/Info                 : Audio Video Interleave
File size                   : 1.42 GiB
Duration                    : 1h 27mn
Overall bit rate            : 2 318 Kbps
Movie name                  : 7.Gnom.2014.D.BDRip.1.46Gb_by_Twi7ter
Director                    : Twi7ter
Genre                       : Adventure/Family
Writing application         : VirtualDubMod 1.5.10.2 (build 2540/release)
Writing library             : VirtualDubMod build 2540/release
Original source form/Name   : Cartoon

Video
ID                          : 0
Format                      : MPEG-4 Visual
Format profile              : Advanced Simple@L5
Format settings, BVOP       : 2
Format settings, QPel       : No
Format settings, GMC        : No warppoints
Format settings, Matrix     : Custom
Codec ID                    : XVID
Codec ID/Hint               : XviD
Duration                    : 1h 27mn
Bit rate                    : 1 833 Kbps
Width                       : 704 pixels
Height                      : 384 pixels
Display aspect ratio        : 1.85:1
Frame rate                  : 23.976 fps
Color space                 : YUV
Chroma subsampling          : 4:2:0
Bit depth                   : 8 bits
Scan type                   : Progressive
Compression mode            : Lossy
Bits/(Pixel*Frame)          : 0.283
Stream size                 : 1.13 GiB (79%)
Writing library             : XviD 73

Audio
ID                          : 1
Format                      : AC-3
Format/Info                 : Audio Coding 3
Mode extension              : CM (complete main)
Format settings, Endianness : Big
Codec ID                    : 2000
Duration                    : 1h 27mn
Bit rate mode               : Constant
Bit rate                    : 384 Kbps
Channel(s)                  : 2 channels
Channel positions           : Front: L R
Sampling rate               : 48.0 KHz
Compression mode            : Lossy
Stream size                 : 241 MiB (17%)
Alignment                   : Split accross interleaves

PS/ POBRALES -------> SEEDUJ /THX/
Szczegóły torrenta
Hash
7c259817aa1ef9a30eb9c50a6d628e2d6b50890b
Aktualizacja
03/10/2017 10:18:00 (Kliknij na [uaktualnij] by odświeżyc statystyki seedów i leecherów).
Zobacz również
Komentarze


Brak komentarzy...


Wstecz