Witamy Guest Strona Główna Regulamin Kontakt
User: Hasło:
Stwórz darmowe konto Odzyskiwanie hasła i loginu

Kategorie
 » Wszystkie torrenty
Filmy
 » DVD-R1895  
 » VCD/SVCD75  
 » BluRay/x2644201  
 » DivX/XviD LEKTOR/NAPISY PL56425  
 » DivX/XviD ENG/...19083  
 » RMVB5949  
 » HD764  
 » 3D221  
Seriale
 » Seriale Polskie2563  
 » Seriale Zagraniczne14285  
Dla Dzieci
 » Bajki Pl/Eng1029  
Anime
 » Anime Pl115  
 » Anime1237  
Muzyka
 » Muzyka Polska/Zagraniczna16240  
 » Soundtracki296  
 » Teledyski/Koncerty1927  
Gry
 » Gry PC9686  
 » Gry PS2/PS3/PSP1074  
 » Gry Xbox1154  
 » Gry - Inne Konsole407  
GSM/PDA
 » Tapety GSM/PDA108  
 » Programy GSM/PDA313  
 » Filmy GSM/PDA123  
 » Dzwonki GSM/PDA113  
 » Gry GSM/PDA225  
Książki/Czasopisma
 » E-Booki9049  
 » Audio-Booki957  
 » Czasopisma865  
 » Komiksy624  
Programy
 » Windows10580  
 » Linux363  
 » Macintosh94  
Inne
 » Tapety2363  
 » Śmieszne72  
 » Sport900  
 » Pozostałe256  
Erotyka
 » Czasopisma110  
 » Zdjęcia 5977  
 » Filmy47665  
 » Gry 66  
 » Hentai+1853  
Archiwum


Pszczółka Maja Film Maya the Bee Movie *2014* [BRRip] [XviD KiT] [Dubbing PL]

Kategoria: Bajki Pl/Eng
Wstawił:  viola62
Dodano: 10/01/2017
Rozmiar: 699.53 MB
Seedów: 6
Leecherów: 4
Komentarze: 0

Pobierz plik
INFO


Tytuł: Maya the Bee Movie
Polski Tytuł: Pszczółka Maja. Film

Produkcja: Australia, Niemcy
Gatunek: Animacja
Czas trwania: 88 min.
Premiera: 26.09.2014 - Polska, 04.09.2014 - Świat
Reżyseria: Alexs Stadermann
Scenariusz: Fin Edquist, Marcus Sauermann

http://www.filmweb.pl/film/Pszcz%C3%B3%C5%82ka+Maja.+Film-2014-709830

http://www.imdb.com/title/tt3336368/?ref_=fn_al_tt_1

https://fdb.pl/film/583834-pszczolka-maja-film


OPIS/


Maja to mała pszczółka o wielkim sercu i urzekającej osobowości! Urodzona w perfekcyjnie zorganizowanym społeczeństwie pszczół robotnic, Maja marzy o prawdziwej wolności oraz ekscytującym życiu pełnym zabawy i wielkich przygód. Prawda jest bowiem taka, że dla inteligentnej Mai świat jest zbyt interesującym i pozytywnie tajemniczym miejscem, by zmarnować swe życie na pracę w ulu. Nie ma drugiej takiej pszczoły jak Maja! Mająca nonkonformizm we krwi, pełna entuzjazmu pszczółka o bujnej wyobraźni chciałaby zasmakować wszystkiego, co świat oferuje.(upload by *censored*) Jej zachwyt nad pięknem otoczenia oraz wrodzony wdzięk zapewniają jej zniewalającą energię, która niedługo sprawi, że wszyscy przeciwnicy staną po jej stronie, a pozostałe pszczoły odnajdą w sobie chęć do radosnego, wyzbytego surowych zasad życia w zgodzie z samym sobą.


OBSADA


★ Agnieszka Fajlhauer...Maja
★ Mateusz Banasiuk...Gucio
★ Krzysztof Ibisz...Filip
★ Agnieszka Kunikowska...Bzyczyna
★ Teresa Lipowska...Królowa
★ Jerzy Kryszak...Gienek
★ Jarosław Boberek...Zenek
★ Ewa Kasprzyk...Niania

Polski dubbing


DANE/


Format           : AVI
Format/Info         : Audio Video Interleave
File size          : 699 MiB
Duration          : 1h 28mn
Overall bit rate      : 1 109 Kbps
Writing application     : VirtualDubMod 1.5.10.2 (build 2540/release)
Writing library       : VirtualDubMod build 2540/release

Video
ID             : 0
Format           : MPEG-4 Visual
Format profile       : Advanced Simple@L5
Format settings, BVOP    : 2
Format settings, QPel    : No
Format settings, GMC    : No warppoints
Format settings, Matrix   : Default (H.263)
Muxing mode         : Packed bitstream
Codec ID          : XVID
Codec ID/Hint        : XviD
Duration          : 1h 28mn
Bit rate          : 928 Kbps
Width            : 640 pixels
Height           : 352 pixels
Display aspect ratio    : 16:9
Frame rate         : 23.976 fps
Color space         : YUV
Chroma subsampling     : 4:2:0
Bit depth          : 8 bits
Scan type          : Progressive
Compression mode      : Lossy
Bits/(Pixel*Frame)     : 0.172
Stream size         : 585 MiB (84%)
Writing library       : XviD 65

Audio
ID             : 1
Format           : MPEG Audio
Format version       : Version 1
Format profile       : Layer 3
Mode            : Joint stereo
Mode extension       : MS Stereo
Codec ID          : 55
Codec ID/Hint        : MP3
Duration          : 1h 27mn
Bit rate mode        : Constant
Bit rate          : 128 Kbps
Channel(s)         : 2 channels
Sampling rate        : 48.0 KHz
Compression mode      : Lossy
Stream size         : 80.3 MiB (11%)
Alignment          : Aligned on interleaves

PS/ POBRALES ---------> SEEDUJ /THX/
Szczegóły torrenta
Hash
7a25de676bee805b46bff67fd707f3a214a70990
Aktualizacja
07/10/2017 22:07:48 (Kliknij na [uaktualnij] by odświeżyc statystyki seedów i leecherów).
Zobacz również
Komentarze


Brak komentarzy...


Wstecz