Witamy Guest Strona Główna Regulamin Kontakt
User: Hasło:
Stwórz darmowe konto Odzyskiwanie hasła i loginu

Kategorie
 » Wszystkie torrenty
Filmy
 » DVD-R1829  
 » VCD/SVCD75  
 » BluRay/x2643836  
 » DivX/XviD LEKTOR/NAPISY PL53771  
 » DivX/XviD ENG/...19079  
 » RMVB5947  
 » HD577  
 » 3D179  
Seriale
 » Seriale Polskie2355  
 » Seriale Zagraniczne12728  
Dla Dzieci
 » Bajki Pl/Eng1009  
Anime
 » Anime Pl106  
 » Anime1237  
Muzyka
 » Muzyka Polska/Zagraniczna15602  
 » Soundtracki287  
 » Teledyski/Koncerty1897  
Gry
 » Gry PC9317  
 » Gry PS2/PS3/PSP1072  
 » Gry Xbox1151  
 » Gry - Inne Konsole405  
GSM/PDA
 » Tapety GSM/PDA108  
 » Programy GSM/PDA285  
 » Filmy GSM/PDA122  
 » Dzwonki GSM/PDA111  
 » Gry GSM/PDA220  
Książki/Czasopisma
 » E-Booki9000  
 » Audio-Booki902  
 » Czasopisma848  
 » Komiksy610  
Programy
 » Windows10359  
 » Linux363  
 » Macintosh94  
Inne
 » Tapety2359  
 » Śmieszne72  
 » Sport882  
 » Pozostałe246  
Erotyka
 » Czasopisma107  
 » Zdjęcia 5937  
 » Filmy46017  
 » Gry 65  
 » Hentai+1853  
Archiwum


VA Best Rock Videos Collection (2009 2011) (2015) Part 1 [WEBRip 1080p x 264 AAC][Eng]

Kategoria: Teledyski/Koncerty
Wstawił:  Bezzol
Dodano: 01/03/2016
Rozmiar: 10.18 GB
Seedów: 1
Leecherów: 3
Komentarze: 0

Pobierz plik
data: 2015
produkja: EU
gatunek: Hard Rock, Brit Pop, Alternative, Metal, Prog Rock,etc.
reżyseria: ??
czas: 141 x ~ 00:04:00

opis:

A cool collection of rock hits from the years 2009 to 2015.
I recommend.

Fajna kolekcja hitów rockowych z lat 2009 do 2015.
Polecam.

obsada total:

30 Seconds to Mars, AC/DC, Aerosmith, Alice in Chains, Alter Bridge, Arctic Monkeys, Avenged Sevenfold,
Black Stone Cherry, Bon Jovi, Bring Me the Horizon, Bush, Chickenfoot, Coldplay, Deep Purple, Disturbed,
Evanescence, Foo Fighters , Godsmack, Green Day, Guns N’ Roses, Halestorm, Iron Maiden, Kings Of Leon,
Korn, Linkin Park, Marilyn Manson, Metallica, Muse, Nickelback , Offspring, Ozzy Osbourne, Papa Roach,
Paramore, Pearl Jam, Rammstein, Red Hot Chili Peppers, Rob Zombie, Scorpions, Seether, Shinedown, Slash ,
Staind, Stone Temple Pilots, Three Days Grace, U2, Van Halen, Whitesnake, Within Temptation, ZZ Top

http://i.imgur.com/BL398L3.jpg
http://i.imgur.com/3ScdzhX.jpg
http://i.imgur.com/8nz1i5R.jpg
http://i.imgur.com/DsT9CnC.jpg

tracklist:



Coldplay - Viva La Vida
Creed - Overcome
Fall Out Boy - I Don t Care
Green Day - Know Your Enemy
Guns N Roses - Better
Kings Of Leon - Use Somebody
Linkin Park - New Divide
Metallica - The Day That Never Comes
Muse - Uprising
Nickelback - Never Gonna Be Alone
Paramore - Ignorance
Pearl Jam - The Fixer
Phoenix - 1901
Rammstein - Pussy (FSK 16 Version)
Rasmus - Living In A World Without You
Rise Against - Savior
Silversun Pickups - Panic Switch
Thirty Seconds to Mars - Kings and Queens
U2 - Magnificent
Vince Neil - Tattoos & Tequila




AC-DC - Shoot To Thrill
Alter Bridge - Isolation
Arcade Fire - Ready to Start
Bon Jovi - What Do You Got
Chickenfoot - My Kinda Girl
Disturbed - Another Way To Die
Enter Shikari - Destabilise
Godsmack - Cryin Like A Bitch
Green Day - 21 Guns
Kings of Leon - Radioactive
Linkin Park - The Catalyst
My Chemical Romance - Sign
My Darkest Days - Porn Star Dancing
Ozzy Osbourne - Life Won t Wait
Shinedown - Diamond Eyes (Boom-Lay Boom-Lay Boom)
Slash (feat. Fergie) - Beautiful Dangerous
Stone Sour - Say You ll Haunt Me
Stone Temple Pilots - Between The Lines
The Black Keys - Howlin For You
Thirty Seconds to Mars - Closer To The Edge



3 Doors Down - When Youre Young
Avenged Sevenfold - So Far Away
Bush - The Sound Of Winter
Chevelle - Face To The Floor
Coldplay - Every Teardrop Is a Waterfall
Daughtry - Crawling Back To You
Evanescence - What You Want
Foo Fighters - Walk
Linkin Park - Waiting for the End
My Chemical Romance - Planetary (GO!)
My Darkest Days - Every Lie
Noel Gallagher's High Flying Birds - AKA... What A Life!
Red Hot Chili Peppers - The Adventures of Rain Dance Maggie
Rise Against - Help Is On The Way
Seether - Country Song
Sixx A.M. - Lies of the Beautiful People
Staind - Not Again
Theory of a Deadman - Lowlife
Whitesnake - Love Will Set You Free
Within Temptation - Faster

dane techniczne:

opcionalnie

Thirty Seconds to Mars - Kings and Queens.mkv
Format : Matroska
Format version : Version 2
File size : 602 MiB
Duration : 8mn 49s
Overall bit rate : 9 543 Kbps
Movie name : Thirty Seconds to Mars - Kings and Queens
Encoded date : UTC 2016-02-19 14:20:10
Writing application : DVDFab 9.2.0.0
Writing library : libebml v0.7.8 + libmatroska v0.8.1

Video
ID : 1
Format : AVC
Format/Info : Advanced Video Codec
Format profile : High@L4.1
Format settings, CABAC : Yes
Format settings, ReFrames : 2 frames
Codec ID : V_MPEG4/ISO/AVC
Duration : 8mn 49s
Bit rate : 9 347 Kbps
Width : 1 920 pixels
Height : 1 080 pixels
Display aspect ratio : 16:9
Frame rate mode : Constant
Frame rate : 23.976 fps
Color space : YUV
Chroma subsampling : 4:2:0
Bit depth : 8 bits
Scan type : Progressive
Bits/(Pixel*Frame) : 0.188
Stream size : 578 MiB (96%)
Writing library : x264 core 142
Default : Yes
Forced : No
Color range : Limited
Color primaries : BT.709
Transfer characteristics : BT.709
Matrix coefficients : BT.709

Audio
ID : 2
Format : AC-3
Format/Info : Audio Coding 3
Mode extension : CM (complete main)
Format settings, Endianness : Big
Codec ID : A_AC3
Duration : 8mn 49s
Bit rate mode : Constant
Bit rate : 192 Kbps
Channel(s) : 2 channels
Channel positions : Front: L R
Sampling rate : 48.0 KHz
Compression mode : Lossy
Stream size : 12.1 MiB (2%)
Default : No
Forced : No
Szczegóły torrenta
Hash
6e372d35975c6a4f97436a0b87428145e8064563
Główny tracker
http://tracker.aleDarmowe-ToRenty.pl:2710/announce [EXTERNAL]
Aktualizacja
18/05/2017 15:51:10 (Kliknij na [uaktualnij] by odświeżyc statystyki seedów i leecherów).
Zobacz również
Komentarze


Brak komentarzy...


Wstecz